Welcome Guest ( Log In | Register )

 
ОтветитьСоздать новую тему
> Sardu - M.P.E.M. [ep] (2017), Blackened Thrash/Speed Metal/Punk
post Oct 12 2017, 07:35:27
Post #1

...
Group Icon
Group: S-moderation team
Posts: 5,320
Releases: 1108
On Forums: 6 years 11 months
Thanks: 26440 time(s)
Unknown


(IMG:https://metalarea.org/images/audiocovers/2017_Oct/acov_tid296024_thumb.jpg)

*Artist: Sardu
*Album: M.P.E.M. [ep]
*Year: 2017
*Genre: Blackened Thrash/Speed Metal/Punk
*Country: Canada (IMG:https://metalarea.org/forum/style_images/flags/Canada.png)
*Format: mp3@CBR320kbps
*Size: 24MB

Tracklist:
1. Metal Punk Exploding Master 03:29
2. Total Devotion 03:13
3. Temp Worker 01:18
4. Bird of Prey MMXVI 01:51
******************************
Total playing time: 9:51

(IMG:https://metalarea.org/images/youtube.png)


Technical info
(IMG:https://metalarea.org/images/spectrogram/2017_Oct/f01b22f2c6d1da0c93c54af589921414.png)
Input File: 04 Bird of Prey MMXVI.mp3
Channels : 2
Sample Rate : 44100
Precision : 16-bit
Duration : 00:01:51.45 = 4914857 samples = 8358.6 CDDA sectors
File Size : 4.61M
Bit Rate : 331k
Sample Encoding: MPEG audio (layer I, II or III)
Comments :
Title=Bird of Prey MMXVI
Artist=Sardu
Album=M.P.E.M. EP
Tracknumber=4
Year=2017



Register


Вернуться к началу страницы
  Insert nick Quick quote
+Цитировать сообщение

ОтветитьСоздать новую тему
1 User(s) are reading this topic (1 Guests and 0 Anonymous Users)
0 Members:

 



- Lo-Fi Version Support form
Copyrights and abuse reports form
Time is now: 18th February 2018 - 01:58:52