Welcome Guest ( Log In | Register )

> Sardu - M.P.E.M. [ep] (2017), Blackened Thrash/Speed Metal/Punk
post Oct 12 2017, 07:35:27
Post #1

...
Group Icon
Group: S-moderation team
Posts: 6,236
Releases: 1276
On Forums: 7 years 3 months
Thanks: 31617 time(s)
Croatia


(IMG:https://metalarea.org/images/audiocovers/2017_Oct/acov_tid296024_thumb.jpg)

*Artist: Sardu
*Album: M.P.E.M. [ep]
*Year: 2017
*Genre: Blackened Thrash/Speed Metal/Punk
*Country: Canada (IMG:https://metalarea.org/forum/style_images/flags/Canada.png)
*Format: mp3@CBR320kbps
*Size: 24MB

Tracklist:
1. Metal Punk Exploding Master 03:29
2. Total Devotion 03:13
3. Temp Worker 01:18
4. Bird of Prey MMXVI 01:51
******************************
Total playing time: 9:51

(IMG:https://metalarea.org/images/youtube.png)


Technical info
(IMG:https://metalarea.org/images/spectrogram/2017_Oct/f01b22f2c6d1da0c93c54af589921414.png)
Input File: 04 Bird of Prey MMXVI.mp3
Channels : 2
Sample Rate : 44100
Precision : 16-bit
Duration : 00:01:51.45 = 4914857 samples = 8358.6 CDDA sectors
File Size : 4.61M
Bit Rate : 331k
Sample Encoding: MPEG audio (layer I, II or III)
Comments :
Title=Bird of Prey MMXVI
Artist=Sardu
Album=M.P.E.M. EP
Tracknumber=4
Year=2017



Register


Go to the top of the page
  Insert nick Quick quote
+Quote Post
 
Start new topic
Replies (1 - 1)
post Apr 27 2018, 12:19:18
Post #2

...
Group Icon
Group: S-moderation team
Posts: 6,236
Releases: 1276
On Forums: 7 years 3 months
Thanks: 31617 time(s)
Croatia


Agreed (IMG:style_emoticons/default/smile1.gif) I had a phase in which I listened to that song every single day many times over and over and often watched the video too. such a hit, still can't get it out of my head! Awesome song. And Sardu is a great band, has good energy/vibe. (IMG:style_emoticons/default/alkash.gif)
Go to the top of the page
  Insert nick Quick quote
+Quote Post

Reply to this topicStart new topic
1 User(s) are reading this topic (1 Guests and 0 Anonymous Users)
0 Members:

 



- Lo-Fi Version Support form
Copyrights and abuse reports form
Time is now: 25th June 2018 - 08:52:53