Welcome Guest ( Log In | Register )

 
Reply to this topicStart new topic
> Uncanny & Lik - Only Death Is Left Alive/The Reaping [split] (2017), Death Metal | Death Metal
post Oct 12 2017, 07:54:11
Post #1

...
Group Icon
Group: S-moderation team
Posts: 6,989
Releases: 1286
On Forums: 7 years 6 months
Thanks: 34377 time(s)
Croatia


(IMG:https://metalarea.org/images/audiocovers/2017_Oct/acov_tid296027_thumb.jpg)

*Artist: Uncanny & Lik
*Album: Only Death Is Left Alive/The Reaping [split]
*Year: 2017
*Genre: Death Metal | Death Metal
*Country: Sweden (IMG:https://metalarea.org/forum/style_images/flags/Sweden.png) | Sweden (IMG:https://metalarea.org/forum/style_images/flags/Sweden.png)
*Format: mp3@CBR320kbps
*Size: 17MB

Tracklist:
Lik:
1. Only Death Is Left Alive 02:57
Uncanny:
2. The Reaping 04:33
******************************
Total playing time: 7:30

Extended info
7" vinyl, War Anthem Records, 500 copies.


Technical info
(IMG:https://metalarea.org/images/spectrogram/2017_Oct/c74f310471fbb3049b20e1c215121c14.png)
Input File: 01 Lik - Only Death Is Left Alive.mp3
Channels : 2
Sample Rate : 44100
Precision : 16-bit
Duration : 00:02:57.62 = 7833174 samples = 13321.7 CDDA sectors
File Size : 7.10M
Bit Rate : 320k
Sample Encoding: MPEG audio (layer I, II or III)
Comments :
Title=Only Death Is Left Alive
Artist=Lik
Album=Only Death Is Left Alive / the Reaping
Tracknumber=1
Genre=Death Metal



Register


Go to the top of the page
  Insert nick Quick quote
+Quote Post

Reply to this topicStart new topic
1 User(s) are reading this topic (1 Guests and 0 Anonymous Users)
0 Members:

 



- Lo-Fi Version Support form
Copyrights and abuse reports form
Time is now: 22nd September 2018 - 00:55:10