Welcome Guest ( Log In | Register )

 
ОтветитьСоздать новую тему
> Uncanny & Lik - Only Death Is Left Alive/The Reaping [split] (2017), Death Metal | Death Metal
post Oct 12 2017, 07:54:11
Post #1

...
Group Icon
Group: S-moderation team
Posts: 5,320
Releases: 1108
On Forums: 6 years 11 months
Thanks: 26440 time(s)
Unknown


(IMG:https://metalarea.org/images/audiocovers/2017_Oct/acov_tid296027_thumb.jpg)

*Artist: Uncanny & Lik
*Album: Only Death Is Left Alive/The Reaping [split]
*Year: 2017
*Genre: Death Metal | Death Metal
*Country: Sweden (IMG:https://metalarea.org/forum/style_images/flags/Sweden.png) | Sweden (IMG:https://metalarea.org/forum/style_images/flags/Sweden.png)
*Format: mp3@CBR320kbps
*Size: 17MB

Tracklist:
Lik:
1. Only Death Is Left Alive 02:57
Uncanny:
2. The Reaping 04:33
******************************
Total playing time: 7:30

Extended info
7" vinyl, War Anthem Records, 500 copies.


Technical info
(IMG:https://metalarea.org/images/spectrogram/2017_Oct/c74f310471fbb3049b20e1c215121c14.png)
Input File: 01 Lik - Only Death Is Left Alive.mp3
Channels : 2
Sample Rate : 44100
Precision : 16-bit
Duration : 00:02:57.62 = 7833174 samples = 13321.7 CDDA sectors
File Size : 7.10M
Bit Rate : 320k
Sample Encoding: MPEG audio (layer I, II or III)
Comments :
Title=Only Death Is Left Alive
Artist=Lik
Album=Only Death Is Left Alive / the Reaping
Tracknumber=1
Genre=Death Metal



Register


Вернуться к началу страницы
  Insert nick Quick quote
+Цитировать сообщение

ОтветитьСоздать новую тему
1 User(s) are reading this topic (1 Guests and 0 Anonymous Users)
0 Members:

 



- Lo-Fi Version Support form
Copyrights and abuse reports form
Time is now: 18th February 2018 - 02:01:43