Welcome Guest ( Log In | Register )

 
ОтветитьСоздать новую тему
> Askalon & Frost - Split Demos 96 [split] (1996), Death Metal | Black/Death Metal
post Oct 12 2017, 08:37:02
Post #1

...
Group Icon
Group: S-moderation team
Posts: 5,320
Releases: 1108
On Forums: 6 years 11 months
Thanks: 26440 time(s)
Unknown


(IMG:https://metalarea.org/images/audiocovers/2017_Oct/acov_tid296029_thumb.jpg)

*Artist: Askalon & Frost
*Album: Split Demos 96 [split]
*Year: 1996
*Genre: Death Metal | Black/Death Metal
*Country: Poland (IMG:https://metalarea.org/forum/style_images/flags/Poland.png) | Poland (IMG:https://metalarea.org/forum/style_images/flags/Poland.png)
*Format: mp3@CBR320kbps
*Size: 58MB

Tracklist:
Frost:
1. Prologos (Intro) 01:09
2. Manes 04:45
3. The Abyss 04:10
4. Exodos (Outro) 02:09
Askalon:
5. Askalon 05:27
6. Victim 07:27
******************************
Total playing time: 25:07

Extended info
Split contains Frost - Promo Tape 96 & Askalon - Fire Walk With Me demo 96.
Self-released tape.
Tape rip + Scans.


Technical info
(IMG:https://metalarea.org/images/spectrogram/2017_Oct/bb733f02440cb7cb6b10f7ebfd54781d.png)
Input File: 02. Frost - Manes.mp3
Channels : 2
Sample Rate : 44100
Precision : 16-bit
Duration : 00:04:45.86 = 12606338 samples = 21439.4 CDDA sectors
File Size : 11.4M
Bit Rate : 320k
Sample Encoding: MPEG audio (layer I, II or III)
Comments :
Title=Manes
Artist=Frost
Album=Split Demos 96
Tracknumber=2
Year=2017-10-02
Genre=Black Metal



Register


Вернуться к началу страницы
  Insert nick Quick quote
+Цитировать сообщение

ОтветитьСоздать новую тему
1 User(s) are reading this topic (1 Guests and 0 Anonymous Users)
0 Members:

 



- Lo-Fi Version Support form
Copyrights and abuse reports form
Time is now: 18th February 2018 - 01:53:29