Welcome Guest ( Log In | Register )

 
Reply to this topicStart new topic
> Escarion - Pinnacle Of Neglect [ep] (2017), Death Metal
post Oct 12 2017, 08:50:48
Post #1

Serial Uploader
Group Icon
Group: V.I.P
Posts: 33,061
Releases: 31346
From: Lithuania
On Forums: 10 years 3 months
Thanks: 358593 time(s)
Lithuania


(IMG:http://metalarea.org/images/audiocovers/2017_Oct/acov_tid296031_thumb.jpg)

*Artist: Escarion
*Album: Pinnacle Of Neglect [ep]
*Year: 2017
*Genre: Death Metal
*Country: Australia (IMG:http://metalarea.org/forum/style_images/flags/Australia.png)
*Format: mp3@CBR320kbps
*Size: 52MB

Tracklist:
01. Murder Messiah
02. The Servant
03. Obscurity
04. Kingdoms
05. The Pinnacle of Neglect
******************************
Total playing time: 27:22



Technical info
(IMG:http://metalarea.org/images/spectrogram/2017_Oct/cb5b9f9e392ec0b5dae8d9e909050a3b.png)
Input File: 02. The Servant.mp3
Channels : 2
Sample Rate : 44100
Precision : 16-bit
Duration : 00:06:18.00 = 16669976 samples = 28350.3 CDDA sectors
File Size : 15.2M
Bit Rate : 322k
Sample Encoding: MPEG audio (layer I, II or III)
Comments :
Title=The Servant
Artist=Escarion
Album=Pinnacle of Neglect
Tracknumber=2/5
Year=2017



Register


Go to the top of the page
  Insert nick Quick quote
+Quote Post

Reply to this topicStart new topic
1 User(s) are reading this topic (1 Guests and 0 Anonymous Users)
0 Members:

 



- Lo-Fi Version Support form
Copyrights and abuse reports form
Time is now: 21st September 2018 - 07:08:05