Welcome Guest ( Log In | Register )

> Sale Freux - L'Exil (Maquette) [demo] (2016), Black Metal
post Oct 12 2017, 09:04:09
Post #1

...
Group Icon
Group: S-moderation team
Posts: 6,962
Releases: 1286
On Forums: 7 years 6 months
Thanks: 34288 time(s)
Croatia


(IMG:https://metalarea.org/images/audiocovers/2017_Oct/acov_tid296032_thumb.jpg)

*Artist: Sale Freux
*Album: L'Exil (Maquette) [demo]
*Year: 2016
*Genre: Black Metal
*Country: France (IMG:https://metalarea.org/forum/style_images/flags/France.png)
*Format: mp3@CBR320kbps
*Size: 155MB

Tracklist:
1. Corbeaux Du Soir, Espoir 03:29
2. Edelweiss 04:42
3. Freux Follet 05:03
4. L'Exil 07:16
5. Un Saule 11:57
6. Oiseau De Malheur 06:48
7. Santé Nom De Freux! 07:58
8. Entre Chien Et Loup 05:32
9. Nuit Blanche En Allier/À Fleur De Plaies 15:00
******************************
Total playing time: 1:07:45

Extended info
Les Créations Clandestines tape limited to 30 copies. Tape rip + Scans.
Demo version (2011) of "L'exil" album.
Recorded between 2009 and 2011.


Technical info
(IMG:https://metalarea.org/images/spectrogram/2017_Oct/c70e4794df5bac9b7652f12b491f8b08.png)
Input File: 03. Freux Follet.mp3
Channels : 2
Sample Rate : 44100
Precision : 16-bit
Duration : 00:05:04.07 = 13409355 samples = 22805 CDDA sectors
File Size : 12.2M
Bit Rate : 320k
Sample Encoding: MPEG audio (layer I, II or III)
Comments :
Title=Freux Follet
Artist=Sale Freux
Album=L'Exil (Maquette)
Tracknumber=3
Year=2017-09-25
Genre=Black Metal



Register


Go to the top of the page
  Insert nick Quick quote
+Quote Post
 
Start new topic
Replies (1 - 1)
post Oct 12 2017, 11:04:50
Post #2

Четыре Литра
****
Group: Металариец
Posts: 311
Releases: 7
From: Подольск
On Forums: 9 years 3 months
Thanks: 300 time(s)
Russian Federation


Go to the top of the page
  Insert nick Quick quote
+Quote Post

Reply to this topicStart new topic
1 User(s) are reading this topic (1 Guests and 0 Anonymous Users)
0 Members:

 



- Lo-Fi Version Support form
Copyrights and abuse reports form
Time is now: 19th September 2018 - 11:33:54