Welcome Guest ( Log In | Register )

 
Reply to this topicStart new topic
> Agressor - Kill Or Die [demo] (1988), Thrash Metal
post Oct 12 2017, 09:16:54
Post #1

Правь статус, ####!616
**************
Group: Металариец
Posts: 4,404
Releases: 3004
From: 55°35’N 38°08’E
On Forums: 10 years 2 months
Thanks: 56496 time(s)
Unknown


(IMG:http://metalarea.org/images/audiocovers/2017_Oct/acov_tid296033_thumb.jpg)

*Artist: Agressor
*Album: Kill Or Die [demo]
*Year: 1988
*Genre: Thrash Metal
*Country: Brazil (IMG:http://metalarea.org/forum/style_images/flags/Brazil.png)
*Format: mp3@CBR320kbps
*Size: 143MB

Tracklist:
1. Intro 01:12
2. Kill or Die 01:37
3. Spirit of Death 04:22
4. Lullaby 05:03
5. Mercenary Politician 06:04
6. Toxicomaniac 03:53
7. Accidental Murder 04:01
8. Spirit of Death 04:33
9. Lullaby 06:56
10. Kill or Die 01:47
11. Lullaby 05:17
12. Spirit of Death 04:21
13. Mercenary Politician 06:19
******************************
Total playing time: 55:25

Extended info
CD, Dies Irae Records 2016
1-7 "Kill or Die" (Demo)
8-13 Bonus tracks


CD-Rip + scans


Technical info
(IMG:http://metalarea.org/images/spectrogram/2017_Oct/f777b80f8c6ccec4c53b1816039d8452.png)
Input File: 02 Kill or Die.mp3
Channels : 2
Sample Rate : 44100
Precision : 16-bit
Duration : 00:01:36.95 = 4275583 samples = 7271.4 CDDA sectors
File Size : 3.97M
Bit Rate : 328k
Sample Encoding: MPEG audio (layer I, II or III)
Comments :
Title=Kill Or Die
Artist=Agressor
Album=Kill Or Die
Tracknumber=2
Year=2016
Genre=Thrash Metal



Register


Go to the top of the page
  Insert nick Quick quote
+Quote Post

Reply to this topicStart new topic
1 User(s) are reading this topic (1 Guests and 0 Anonymous Users)
0 Members:

 



- Lo-Fi Version Support form
Copyrights and abuse reports form
Time is now: 22nd September 2018 - 00:51:09