Welcome Guest ( Log In | Register )

> Miasmal & Vampire - Queen Of A Poisoned Realm/The Night It Came Out Of The Grave [split] (2014), Death Metal | Death/Thrash Metal (D7)
post Oct 12 2017, 09:27:19
Post #1

Правь статус, ####!616
**************
Group: Металариец
Posts: 4,404
Releases: 3004
From: 55°35’N 38°08’E
On Forums: 10 years 2 months
Thanks: 56496 time(s)
Unknown


(IMG:http://metalarea.org/images/audiocovers/2017_Oct/acov_tid296034_thumb.jpg)

*Artist: Miasmal & Vampire
*Album: Queen Of A Poisoned Realm/The Night It Came Out Of The Grave [split]
*Year: 2014
*Genre: Death Metal | Death/Thrash Metal
*Country: Sweden (IMG:http://metalarea.org/forum/style_images/flags/Sweden.png) | Sweden (IMG:http://metalarea.org/forum/style_images/flags/Sweden.png)
*Format: mp3@CBR320kbps
*Size: 14MB

Tracklist:
Miasmal:
1.Queen of a Poisoned Realm 03:11
Vampire:
2.The Night It Came Out of the Grave 02:54
******************************
Total playing time: 6:05

Extended info
7" vinyl, Century Media Records
Vinyl-Rip


Technical info
(IMG:http://metalarea.org/images/spectrogram/2017_Oct/88dfe685bd64fef204f7e2f8c404eb98.png)
Input File: 01 Miasmal - Queen Of A Poisoned Realm.mp3
Channels : 2
Sample Rate : 44100
Precision : 16-bit
Duration : 00:03:11.73 = 8455425 samples = 14380 CDDA sectors
File Size : 7.74M
Bit Rate : 323k
Sample Encoding: MPEG audio (layer I, II or III)
Comments :
Title=Queen Of A Poisoned Realm
Artist=Miasmal
Album=Queen Of A Poisoned Realm / The Night It Came Out Of The Grave
Tracknumber=1
Year=2014
Genre=Death Metal



Register


Go to the top of the page
  Insert nick Quick quote
+Quote Post
 
Start new topic
Replies (1 - 1)
post Oct 14 2017, 14:44:45
Post #2
BAN
Banned till
Feb 2 2036, 11:04:06



Cover art is beautiful.
Go to the top of the page
  Insert nick Quick quote
+Quote Post

Reply to this topicStart new topic
1 User(s) are reading this topic (1 Guests and 0 Anonymous Users)
0 Members:

 



- Lo-Fi Version Support form
Copyrights and abuse reports form
Time is now: 22nd September 2018 - 00:06:13