Welcome Guest ( Log In | Register )

 
Reply to this topicStart new topic
> MAD - Insects [demo] (1991), Progressive Thrash Metal
post Oct 12 2017, 09:36:59
Post #1

Подвал
**************
Group: Металариец
Posts: 12,412
Releases: 6990
From: Far East (Khabarovsk)
On Forums: 9 years 7 months
Thanks: 64467 time(s)
Russian Federation


(IMG:http://metalarea.org/images/audiocovers/2017_Oct/acov_tid296035_thumb.jpg)

*Artist: MAD
*Album: Insects [demo]
*Year: 1991
*Genre: Progressive Thrash Metal
*Country: Argentina (IMG:http://metalarea.org/forum/style_images/flags/Argentina.png)
*Format: mp3@CBR320kbps
*Size: 57MB

Tracklist:
1. Set Me Free 03:51
2. The Walking Man 04:33
3. D - Pression 03:19
4. King Of Ignorance 05:36
5. Insects 03:49
6. Time For Living 04:00
******************************
Total playing time: 25:08



Extended info
Recorded and mixed in Santa Fe Recording.


Technical info
(IMG:http://metalarea.org/images/spectrogram/2017_Oct/c9c68115305db9e0d3e8f6095bedb04d.png)
Input File: 01-Set Me Free.mp3
Channels : 2
Sample Rate : 44100
Precision : 16-bit
Duration : 00:03:51.13 = 10192833 samples = 17334.8 CDDA sectors
File Size : 9.57M
Bit Rate : 331k
Sample Encoding: MPEG audio (layer I, II or III)
Comments :
Title=Set Me Free
Artist=MAD
Album=Insects (Demo)
Tracknumber=01
Year=1991
Genre=Thrash Metal



Register


Go to the top of the page
  Insert nick Quick quote
+Quote Post

Reply to this topicStart new topic
1 User(s) are reading this topic (1 Guests and 0 Anonymous Users)
0 Members:

 



- Lo-Fi Version Support form
Copyrights and abuse reports form
Time is now: 19th September 2018 - 12:40:26