Welcome Guest ( Log In | Register )

> Auriga - Dark Toughts: Antara Sessions [ep] (1998), Heavy/Thrash Metal (D5)
post Oct 12 2017, 10:04:48
Post #1

Join my religion, or die
**************
Group: Металариец
Posts: 9,391
Releases: 1124
From: Питера
On Forums: 8 years 4 months
Thanks: 15248 time(s)
Russian Federation


(IMG:https://metalarea.org/images/audiocovers/2017_Oct/acov_tid296038_thumb.jpg)

*Artist: Auriga
*Album: Dark Toughts: Antara Sessions [ep]
*Year: 1998
*Genre: Heavy/Thrash Metal
*Country: Costa Rica (IMG:https://metalarea.org/forum/style_images/flags/Costa%20Rica.png)
*Format: mp3@CBR320kbps
*Size: 61MB

Tracklist:
01. A Night In My Room
02. The Legend
03. La Espada Y La Ley
04. Indian Story
******************************
Total playing time: 26:42

Preview 1

Technical info
(IMG:https://metalarea.org/images/spectrogram/2017_Oct/ba1d3eca3286d77896e2c55962722cd9.png)
Input File: 02 The Legend.mp3
Channels : 2
Sample Rate : 44100
Precision : 16-bit
Duration : 00:07:05.32 = 18756436 samples = 31898.7 CDDA sectors
File Size : 17.1M
Bit Rate : 321k
Sample Encoding: MPEG audio (layer I, II or III)
Comments :
Title=The Legend
Artist=Auriga
Album=1998 Dark Toughts: Antara Sessions
Tracknumber=02/04
Year=1998
Genre=Heavy/Thrash Metal



Register


Вернуться к началу страницы
  Insert nick Quick quote
+Цитировать сообщение
 
Создать новую тему
Replies (1 - 1)
post Dec 10 2017, 13:13:09
Post #2

Правь статус, ####!111
**************
Group: Металариец
Posts: 6,564
Releases: 0
From: Москва
On Forums: 8 years 6 months
Thanks: 10421 time(s)
Russian Federation


Register
320
Вернуться к началу страницы
  Insert nick Quick quote
+Цитировать сообщение

ОтветитьСоздать новую тему
2 User(s) are reading this topic (2 Guests and 0 Anonymous Users)
0 Members:

 



- Lo-Fi Version Support form
Copyrights and abuse reports form
Time is now: 18th February 2018 - 04:16:52