Welcome Guest ( Log In | Register )

 
ОтветитьСоздать новую тему
> Hurricane Joe - Alpacalypse (2017), Progressive Deathcore
post Oct 12 2017, 10:57:12
Post #1

Serial Uploader
Group Icon
Group: V.I.P
Posts: 31,385
Releases: 29721
From: Lithuania
On Forums: 9 years 8 months
Thanks: 341393 time(s)
Lithuania


(IMG:http://metalarea.org/images/audiocovers/2017_Oct/acov_tid296039_thumb.jpg)

*Artist: Hurricane Joe
*Album: Alpacalypse
*Year: 2017
*Genre: Progressive Deathcore
*Country: United States (IMG:http://metalarea.org/forum/style_images/flags/United%20States.png)
*Format: mp3@CBR320kbps
*Size: 69MB

Tracklist:
01. Relapse 04:34
02. Kim Jon Uno 03:50
03. Giant Alpacas 04:15
04. Darth Hater 04:18
05. Father Moth 03:43
06. Dope as Fuck 04:56
07. Butterneck 04:09
******************************
Total playing time: 29:45




Technical info
(IMG:http://metalarea.org/images/spectrogram/2017_Oct/2110ab0b5eb448325e507b7abcfa1027.png)
Input File: 02. Kim Jong Uno.mp3
Channels : 2
Sample Rate : 44100
Precision : 16-bit
Duration : 00:03:50.88 = 10181896 samples = 17316.1 CDDA sectors
File Size : 9.34M
Bit Rate : 324k
Sample Encoding: MPEG audio (layer I, II or III)
Comments :
Title=Kim Jong Uno
Artist=Hurricane Joe
Album=Alpacalypse
Tracknumber=2
Year=2017



Register


Thanks:
Вернуться к началу страницы
  Insert nick Quick quote
+Цитировать сообщение

ОтветитьСоздать новую тему
2 User(s) are reading this topic (2 Guests and 0 Anonymous Users)
0 Members:

 



- Lo-Fi Version Support form
Copyrights and abuse reports form
Time is now: 18th February 2018 - 04:18:09