Welcome Guest ( Log In | Register )

> Enslaved - E (2017), Progressive Black/Viking Metal
post Oct 12 2017, 11:22:34
Post #1

Serial Uploader
Group Icon
Group: V.I.P
Posts: 33,070
Releases: 31355
From: Lithuania
On Forums: 10 years 3 months
Thanks: 358679 time(s)
Lithuania


(IMG:http://metalarea.org/images/audiocovers/2017_Oct/acov_tid296040_thumb.jpg)

*Artist: Enslaved
*Album: E
*Year: 2017
*Genre: Progressive Black/Viking Metal
*Country: Norway (IMG:http://metalarea.org/forum/style_images/flags/Norway.png)
*Format: mp3@CBR320kbps
*Size: 142MB

Tracklist:
01. Storm Son 10:54
02. The River's Mouth 05:12
03. Sacred Horse 08:12
04. Axis Of The Worlds 07:49
05. Feathers Of Eolh 08:06
06. Hiindsiight 09:32
07. Djupet 07:39
08. What Else Is There? (Röyksopp Cover) (Bonus Track) 04:44
******************************
Total playing time: 1:02:08

(IMG:http://metalarea.org/images/myspace.png)

(IMG:http://metalarea.org/images/youtube.png)

Technical info
(IMG:http://metalarea.org/images/spectrogram/2017_Oct/fcb4a6870fbd5a0d2ac2d776b3b91b33.png)
Input File: 02. The River's Mouth.mp3
Channels : 2
Sample Rate : 44100
Precision : 16-bit
Duration : 00:05:12.55 = 13783631 samples = 23441.5 CDDA sectors
File Size : 12.7M
Bit Rate : 325k
Sample Encoding: MPEG audio (layer I, II or III)
Comments :
Title=The River's Mouth
Artist=Enslaved
Album=E
Tracknumber=2/8
Year=2017



Register


Go to the top of the page
  Insert nick Quick quote
+Quote Post
2 Pages V  < 1 2  
Start new topic
Replies (60 - 47)

2 Pages V  < 1 2
Reply to this topicStart new topic
1 User(s) are reading this topic (1 Guests and 0 Anonymous Users)
0 Members:

 



- Lo-Fi Version Support form
Copyrights and abuse reports form
Time is now: 25th September 2018 - 01:16:14