Welcome Guest ( Log In | Register )

> Fozzy - Judas (2017), Heavy Metal
post Oct 12 2017, 11:28:54
Post #1

Serial Uploader
Group Icon
Group: V.I.P
Posts: 32,736
Releases: 31034
From: Lithuania
On Forums: 10 years 2 weeks
Thanks: 355782 time(s)
Lithuania


(IMG:http://metalarea.org/images/audiocovers/2017_Oct/acov_tid296041_thumb.jpg)

*Artist: Fozzy
*Album: Judas
*Year: 2017
*Genre: Heavy Metal
*Country: United States (IMG:http://metalarea.org/forum/style_images/flags/United%20States.png)
*Format: mp3@CBR320kbps
*Size: 99MB

Tracklist:
01. Judas 04:10
02. Drinkin With Jesus 03:56
03. Painless 03:59
04. Weight Of My World 03:18
05. Wordsworth Way 04:47
06. Burn Me Out 04:03
07. Three Days In Jail 04:16
08. Elevator 02:50
09. Running With The Bulls 03:51
10. Capsized 04:16
11. Wolves At Bay 03:09
******************************
Total playing time: 42:35

(IMG:http://metalarea.org/images/myspace.png)

(IMG:http://metalarea.org/images/youtube.png)

Technical info
(IMG:http://metalarea.org/images/spectrogram/2017_Oct/adb0b6407397723e1dc7440836f99126.png)
Input File: 02. Drinkin with Jesus.mp3
Channels : 2
Sample Rate : 44100
Precision : 16-bit
Duration : 00:03:56.16 = 10414480 samples = 17711.7 CDDA sectors
File Size : 9.59M
Bit Rate : 325k
Sample Encoding: MPEG audio (layer I, II or III)
Comments :
Title=Drinkin with Jesus
Artist=Fozzy, Fozzy
Album=Judas
Tracknumber=2/11
Year=2017



Register


Go to the top of the page
  Insert nick Quick quote
+Quote Post
 
Start new topic
Replies (1 - 2)
post Oct 13 2017, 10:55:45
Post #2

hearer & reader
**************
Group: Металариец
Posts: 6,406
Releases: 81
From: Moscow
On Forums: 10 years 9 months
Thanks: 6418 time(s)
Russian Federation


Хэви у них в далёком прошлом. Модерн рок.
Go to the top of the page
  Insert nick Quick quote
+Quote Post
post Oct 30 2017, 17:31:26
Post #3

Old School Metal
**************
Group: Металариец
Posts: 2,555
Releases: 0
From: г. Минск
On Forums: 9 years 3 months
Thanks: 5100 time(s)
Belarus


(IMG:http://raritetno.com/uploads/posts/2017-10/1509353736_fkj.77.jpg)

Lossless: FLAC (image+.cue+.log) + Covers

Register


Go to the top of the page
  Insert nick Quick quote
+Quote Post

Reply to this topicStart new topic
1 User(s) are reading this topic (1 Guests and 0 Anonymous Users)
0 Members:

 



- Lo-Fi Version Support form
Copyrights and abuse reports form
Time is now: 24th June 2018 - 06:06:23