Welcome Guest ( Log In | Register )

> Sparzanza - Announcing The End (2017), Stoner Metal
post Oct 12 2017, 12:09:42
Post #1

Serial Uploader
Group Icon
Group: V.I.P
Posts: 32,736
Releases: 31034
From: Lithuania
On Forums: 10 years 2 weeks
Thanks: 355782 time(s)
Lithuania


(IMG:http://metalarea.org/images/audiocovers/2017_Oct/acov_tid296046_thumb.jpg)

*Artist: Sparzanza
*Album: Announcing The End
*Year: 2017
*Genre: Stoner Metal
*Country: Sweden (IMG:http://metalarea.org/forum/style_images/flags/Sweden.png)
*Format: mp3@CBR320kbps
*Size: 121MB

Tracklist:
01. Announcing The End 04:38
02. Damnation 04:18
03. Whatever Come May Be 05:09
04. Vindication 05:40
05. The Trigger 04:02
06. Breathe In The Fire 04:11
07. One Last Breath 05:31
08. To The One 04:30
09. The Dark Appeal 04:09
10. We Are Forever 04:09
11. Truth Is A Lie 04:36
******************************
Total playing time: 50:53

(IMG:http://metalarea.org/images/myspace.png)


Technical info
(IMG:http://metalarea.org/images/spectrogram/2017_Oct/13915284cddde54ca860f19ef66d198c.png)
Input File: 02. Damnation.mp3
Channels : 2
Sample Rate : 44100
Precision : 16-bit
Duration : 00:04:18.58 = 11403554 samples = 19393.8 CDDA sectors
File Size : 10.8M
Bit Rate : 335k
Sample Encoding: MPEG audio (layer I, II or III)
Comments :
Title=Damnation
Artist=Sparzanza
Album=Announcing The End
Tracknumber=2/11
Year=2017



Register


Go to the top of the page
  Insert nick Quick quote
+Quote Post
 
Start new topic
Replies (1 - 5)
post Oct 12 2017, 13:06:50
Post #2

Четыре Литра
****
Group: Металариец
Posts: 344
Releases: 12
From: Херсон
On Forums: 10 years 5 months
Thanks: 408 time(s)
Ukraine


Такая офигенная группа, а так мало людей о ней знают. Обидно(IMG:style_emoticons/default/smile2.gif)

Вот вам превьюхи:





Thanks:
(1) kessler,
Go to the top of the page
  Insert nick Quick quote
+Quote Post
post Oct 12 2017, 19:17:23
Post #3

ухо-горло-нос
*******
Group: Металариец
Posts: 758
Releases: 0
From: Севастополь
On Forums: 7 years 9 months
Thanks: 338 time(s)
Russian Federation


ЦИТАТА(tranquillit @ Oct 12 2017, 15:06:50) *
Такая офигенная группа, а так мало людей о ней знают. Обидно(IMG:style_emoticons/default/smile2.gif)

Да, по вьюхе коллектив хороший, не особо уступает Samael или Enslaved сегоднящним релизам, а даже как по мне менее нагруженный инструментальными многообразиями. Рекомендам-с.
Go to the top of the page
  Insert nick Quick quote
+Quote Post
post Oct 13 2017, 11:01:07
Post #4

Четыре Литра
****
Group: Металариец
Posts: 344
Releases: 12
From: Херсон
On Forums: 10 years 5 months
Thanks: 408 time(s)
Ukraine


А вот их шедевр минувших годов, кому интересно послушать дискографию:

Go to the top of the page
  Insert nick Quick quote
+Quote Post
post Oct 21 2017, 19:33:48
Post #5

Девять Литров
*********
Group: Металариец
Posts: 922
Releases: 0
From: Харьков
On Forums: 9 years 10 months
Thanks: 263 time(s)
Ukraine


Это хэви-метал, а не стоунер
Go to the top of the page
  Insert nick Quick quote
+Quote Post
post Jun 22 2018, 15:14:51
Post #6

Четыре Литра
****
Group: Металариец
Posts: 320
Releases: 0
On Forums: 1 year 11 months
Thanks: 18 time(s)
Unknown


Metal or Rock? .... Rock!
Go to the top of the page
  Insert nick Quick quote
+Quote Post

Reply to this topicStart new topic
1 User(s) are reading this topic (1 Guests and 0 Anonymous Users)
0 Members:

 



- Lo-Fi Version Support form
Copyrights and abuse reports form
Time is now: 24th June 2018 - 06:06:58