Welcome Guest ( Log In | Register )

> Nachtblut - Apostasie (2017), Melodic Gothic/Black Metal (D6)
post Oct 12 2017, 12:11:01
Post #1

Serial Uploader
Group Icon
Group: V.I.P
Posts: 32,720
Releases: 31018
From: Lithuania
On Forums: 10 years 1 week
Thanks: 355644 time(s)
Lithuania


(IMG:http://metalarea.org/images/audiocovers/2017_Oct/acov_tid296047_thumb.png)

*Artist: Nachtblut
*Album: Apostasie
*Year: 2017
*Genre: Melodic Gothic/Black Metal
*Country: Germany (IMG:http://metalarea.org/forum/style_images/flags/Germany.png)
*Format: mp3@CBR320kbps
*Size: 116MB

Tracklist:
01. Multikulturell 05:50
02. Lied Für Die Götter 03:58
03. Amok 03:41
04. Scheinfromm 03:37
05. Geboren Um Zu Leben 04:28
06. Der Tod Ist Meine Nutte 03:51
07. Mein Antlitz Aschfahl Vor Gram 04:08
08. Frauenausbeiner 05:10
09. Einsam 05:56
10. Apostasie 05:09
11. Wat Is' Denn Los Mit Dir (Bonus Track) 03:36
******************************
Total playing time: 49:24

(IMG:http://metalarea.org/images/myspace.png)

(IMG:http://metalarea.org/images/youtube.png)

Technical info
(IMG:http://metalarea.org/images/spectrogram/2017_Oct/488754a4ef032201a01b5fa7808ff5bb.png)
Input File: 02. Lied fur die Gotter.mp3
Channels : 2
Sample Rate : 44100
Precision : 16-bit
Duration : 00:03:59.03 = 10541091 samples = 17927 CDDA sectors
File Size : 9.71M
Bit Rate : 325k
Sample Encoding: MPEG audio (layer I, II or III)
Comments :
Title=Lied fur die Gotter
Artist=Nachtblut
Album=Apostasie
Tracknumber=2/11
Year=2017



Register


Go to the top of the page
  Insert nick Quick quote
+Quote Post
 
Start new topic
Replies (1 - 2)
post Oct 13 2017, 10:41:54
Post #2

hearer & reader
**************
Group: Металариец
Posts: 6,388
Releases: 81
From: Moscow
On Forums: 10 years 9 months
Thanks: 6414 time(s)
Russian Federation



Go to the top of the page
  Insert nick Quick quote
+Quote Post
post Oct 21 2017, 08:39:03
Post #3

Ъ
**************
Group: Металариец
Posts: 9,065
Releases: 9
On Forums: 9 years 5 months
Thanks: 1714 time(s)
Sweden


В стиль надо было NDH, а вообще скука, даже пол альбома не осилил.
Go to the top of the page
  Insert nick Quick quote
+Quote Post

Reply to this topicStart new topic
1 User(s) are reading this topic (1 Guests and 0 Anonymous Users)
0 Members:

 



- Lo-Fi Version Support form
Copyrights and abuse reports form
Time is now: 20th June 2018 - 05:07:10