Welcome Guest ( Log In | Register )

> И неформату есть предел.

Рэп/хип-хоп/шансон/поп удаляются. Для них есть свои порталы.

> Daniel Cavanagh - Monochrome (2017), Atmospheric Rock
post Oct 12 2017, 13:07:41
Post #1

Аннигилятор пивА
Group Icon
Group: V.I.P
Posts: 46,786
Releases: 14052
From: Koenigsberg - TILZIT
On Forums: 12 years 3 weeks
Thanks: 311826 time(s)
Russian Federation


(IMG:https://metalarea.org/images/audiocovers/2017_Oct/acov_tid296049_thumb.jpg)

*Artist: Daniel Cavanagh
*Album: Monochrome
*Year: 2017
*Genre: Atmospheric Rock
*Country: United Kingdom (IMG:https://metalarea.org/forum/style_images/flags/United%20Kingdom.png)
*Format: mp3@CBR320kbps
*Size: 115MB

Tracklist:
01. The Exorcist 06:43
02. This Music (feat Anneke Van Giersbergen) 04:50
03. Soho (feat Anneke Van Giersbergen) 07:39
04. The Silent Flight Of The Raven Winged Hours 09:03
05. Dawn 02:42
06. Oceans Of Time (feat Anneke Van Giersbergen) 08:14
07. Some Dreams Come True 08:34
******************************
Total playing time: 47:45

Extended info
Guest:
Anneke Van Giersbergen – ex-vocalist for The Gathering and the exceptionally talented Anna Phoebe provides also violin on three of the album tracks


Technical info
(IMG:https://metalarea.org/images/spectrogram/2017_Oct/718b34af218b583631d9e2672676abb2.png)
Input File: 02. This Music.mp3
Channels : 2
Sample Rate : 44100
Precision : 16-bit
Duration : 00:04:53.05 = 12923285 samples = 21978.4 CDDA sectors
File Size : 12.1M
Bit Rate : 330k
Sample Encoding: MPEG audio (layer I, II or III)
Comments :
Title=This Music
Artist=Daniel Cavanagh
Album=Monochrome
Tracknumber=2/7
Year=2017



Register


Go to the top of the page
  Insert nick Quick quote
+Quote Post
 
Start new topic
Replies (1 - 6)
post Oct 12 2017, 16:43:05
Post #2

Аннигилятор пивА
Group Icon
Group: V.I.P
Posts: 46,786
Releases: 14052
From: Koenigsberg - TILZIT
On Forums: 12 years 3 weeks
Thanks: 311826 time(s)
Russian Federation


mirror
Register




Go to the top of the page
  Insert nick Quick quote
+Quote Post
post Oct 12 2017, 20:53:32
Post #3

Ёлд ХеллоВяйне
Group Icon
Group: V.I.P
Posts: 25,565
Releases: 130
From: Питер
On Forums: 11 years 7 months
Thanks: 14073 time(s)
Russian Federation


Честно говоря, прошлый сольник Данилы был жутко уныл. Но там не было Аньки, так что надежда есть.


Thanks:
(1) ShmiT,
Go to the top of the page
  Insert nick Quick quote
+Quote Post
post Oct 13 2017, 20:43:04
Post #4

Шесть Литров
******
Group: Металариец
Posts: 542
Releases: 0
From: Харьков
On Forums: 8 years 8 months
Thanks: 170 time(s)
Ukraine


Альбом прекрасен, возможно, сильнее последней Анафемы (которая мне тоже нравится). Во всяком случае, не такой предсказуемо форматный. Но Винсент (а многие треки вполне могли бы прозвучать и в исполнении основной группы), конечно, спел бы лучше.
ЦИТАТА(Old Vyaine @ Oct 12 2017, 22:53:32) *
прошлый сольник Данилы был жутко уныл

Это какой? У него сплошь каверы до этого были.
Go to the top of the page
  Insert nick Quick quote
+Quote Post
post Oct 13 2017, 20:59:33
Post #5

Герберт Уэст
**************
Group: Металариец
Posts: 2,028
Releases: 59
From: ранее: Кто здесь? нынче:Где-то на краю мира...
On Forums: 9 years 6 days
Thanks: 4000 time(s)
Unknown


Очень такой эфирный, суборбитальный, я бы сказал, альбом - мне очень понравилось. (IMG:style_emoticons/default/headcrab.png)
Go to the top of the page
  Insert nick Quick quote
+Quote Post
post Oct 14 2017, 10:44:10
Post #6

Ёлд ХеллоВяйне
Group Icon
Group: V.I.P
Posts: 25,565
Releases: 130
From: Питер
On Forums: 11 years 7 months
Thanks: 14073 time(s)
Russian Federation


QUOTE(paganheart @ 13th October 2017 - 22:59:33) *
Это какой? У него сплошь каверы до этого были.


Daniel Cavanagh & Joseph Geraci - The Passage (2013)

позапрошлый, ок.
Go to the top of the page
  Insert nick Quick quote
+Quote Post
post Oct 22 2017, 12:46:47
Post #7

Мегаманьяк
***********
Group: Металариец
Posts: 1,916
Releases: 6
From: Kyiv
On Forums: 10 years 7 months
Thanks: 251 time(s)
Ukraine


жырище! лучше крайней Anathema (IMG:style_emoticons/default/smile1.gif)
Go to the top of the page
  Insert nick Quick quote
+Quote Post

Reply to this topicStart new topic
1 User(s) are reading this topic (1 Guests and 0 Anonymous Users)
0 Members:

 



- Lo-Fi Version Support form
Copyrights and abuse reports form
Time is now: 19th June 2018 - 03:37:27