Welcome Guest ( Log In | Register )

> The Fright - Canto V (2017), Gothic Metal
post Oct 12 2017, 13:23:06
Post #1

Serial Uploader
Group Icon
Group: V.I.P
Posts: 32,736
Releases: 31034
From: Lithuania
On Forums: 10 years 2 weeks
Thanks: 355758 time(s)
Lithuania


(IMG:http://metalarea.org/images/audiocovers/2017_Oct/acov_tid296051_thumb.jpg)

*Artist: The Fright
*Album: Canto V
*Year: 2017
*Genre: Gothic Metal
*Country: Germany (IMG:http://metalarea.org/forum/style_images/flags/Germany.png)
*Format: mp3@CBR320kbps
*Size: 102MB

Tracklist:
01. Bonfire Night 04:24
02. No One 03:21
03. Wander Alone 03:51
04. Love Is Gone 03:26
05. Fade Away 05:42
06. Oblivion 03:49
07. Leave 04:34
08. Drowned In Red 05:14
09. Century Without A Name 04:44
10. In Sicherheit 03:51
******************************
Total playing time: 42:56


(IMG:http://metalarea.org/images/youtube.png)

Technical info
(IMG:http://metalarea.org/images/spectrogram/2017_Oct/b772ff05c0330f017a11a1d5e2a9309f.png)
Input File: 02. No One.mp3
Channels : 2
Sample Rate : 44100
Precision : 16-bit
Duration : 00:03:21.64 = 8892500 samples = 15123.3 CDDA sectors
File Size : 8.36M
Bit Rate : 332k
Sample Encoding: MPEG audio (layer I, II or III)
Comments :
Title=No One
Artist=The Fright
Album=Canto V
Tracknumber=2/10
Year=2017



Register


Go to the top of the page
  Insert nick Quick quote
+Quote Post
 
Start new topic
Replies (1 - 3)
post Oct 13 2017, 10:38:23
Post #2

hearer & reader
**************
Group: Металариец
Posts: 6,406
Releases: 81
From: Moscow
On Forums: 10 years 9 months
Thanks: 6418 time(s)
Russian Federation



Красивенько-попсовенько (IMG:style_emoticons/default/smile3.gif)
Go to the top of the page
  Insert nick Quick quote
+Quote Post
post Oct 21 2017, 13:21:14
Post #3

Ъ
**************
Group: Металариец
Posts: 9,066
Releases: 9
On Forums: 9 years 5 months
Thanks: 1718 time(s)
Sweden


Прогнал на раз, неплохо, вокал подводит местами.
Go to the top of the page
  Insert nick Quick quote
+Quote Post
post May 28 2018, 09:58:50
Post #4

T.I.N.D.
**************
Group: Металариец
Posts: 2,364
Releases: 62
On Forums: 9 years 1 month
Thanks: 1473 time(s)
Australia


Go to the top of the page
  Insert nick Quick quote
+Quote Post

Reply to this topicStart new topic
1 User(s) are reading this topic (1 Guests and 0 Anonymous Users)
0 Members:

 



- Lo-Fi Version Support form
Copyrights and abuse reports form
Time is now: 23rd June 2018 - 16:45:41