Welcome Guest ( Log In | Register )

> The Fright - Canto V (2017), Gothic Metal
post Oct 12 2017, 13:23:06
Post #1

Serial Uploader
Group Icon
Group: V.I.P
Posts: 31,385
Releases: 29721
From: Lithuania
On Forums: 9 years 8 months
Thanks: 341393 time(s)
Lithuania


(IMG:http://metalarea.org/images/audiocovers/2017_Oct/acov_tid296051_thumb.jpg)

*Artist: The Fright
*Album: Canto V
*Year: 2017
*Genre: Gothic Metal
*Country: Germany (IMG:http://metalarea.org/forum/style_images/flags/Germany.png)
*Format: mp3@CBR320kbps
*Size: 102MB

Tracklist:
01. Bonfire Night 04:24
02. No One 03:21
03. Wander Alone 03:51
04. Love Is Gone 03:26
05. Fade Away 05:42
06. Oblivion 03:49
07. Leave 04:34
08. Drowned In Red 05:14
09. Century Without A Name 04:44
10. In Sicherheit 03:51
******************************
Total playing time: 42:56


(IMG:http://metalarea.org/images/youtube.png)

Technical info
(IMG:http://metalarea.org/images/spectrogram/2017_Oct/b772ff05c0330f017a11a1d5e2a9309f.png)
Input File: 02. No One.mp3
Channels : 2
Sample Rate : 44100
Precision : 16-bit
Duration : 00:03:21.64 = 8892500 samples = 15123.3 CDDA sectors
File Size : 8.36M
Bit Rate : 332k
Sample Encoding: MPEG audio (layer I, II or III)
Comments :
Title=No One
Artist=The Fright
Album=Canto V
Tracknumber=2/10
Year=2017



Register


Вернуться к началу страницы
  Insert nick Quick quote
+Цитировать сообщение
 
Создать новую тему
Replies (1 - 2)
post Oct 13 2017, 10:38:23
Post #2

hearer & reader
**************
Group: Металариец
Posts: 5,978
Releases: 78
From: Moscow
On Forums: 10 years 5 months
Thanks: 6217 time(s)
Russian Federation



Красивенько-попсовенько (IMG:style_emoticons/default/smile3.gif)
Вернуться к началу страницы
  Insert nick Quick quote
+Цитировать сообщение
post Oct 21 2017, 13:21:14
Post #3

Ъ
**************
Group: Металариец
Posts: 8,943
Releases: 9
On Forums: 9 years 1 month
Thanks: 1661 time(s)
Sweden


Прогнал на раз, неплохо, вокал подводит местами.
Вернуться к началу страницы
  Insert nick Quick quote
+Цитировать сообщение

ОтветитьСоздать новую тему
2 User(s) are reading this topic (2 Guests and 0 Anonymous Users)
0 Members:

 



- Lo-Fi Version Support form
Copyrights and abuse reports form
Time is now: 18th February 2018 - 04:17:08