Welcome Guest ( Log In | Register )

> Savage Annihilation - Quand S'abaisse La Croix Du Blasphème (2017), Death Metal (D4)
post Oct 12 2017, 13:28:00
Post #1

Serial Uploader
Group Icon
Group: V.I.P
Posts: 31,385
Releases: 29721
From: Lithuania
On Forums: 9 years 8 months
Thanks: 341393 time(s)
Lithuania


(IMG:http://metalarea.org/images/audiocovers/2017_Oct/acov_tid296052_thumb.jpg)

*Artist: Savage Annihilation
*Album: Quand S'abaisse La Croix Du Blasphème
*Year: 2017
*Genre: Death Metal
*Country: France (IMG:http://metalarea.org/forum/style_images/flags/France.png)
*Format: mp3@CBR320kbps
*Size: 79MB

Tracklist:
01. Dévorante dégénérescence anthropophage 05:42
02. Par-delà les dunes de cadavres 08:13
03. Quand s'abaisse la croix du blasphème 08:44
04. Organe après organe 03:58
05. Hyrreit 05:36
06. Le tombeau de l'atrocité 01:23
******************************
Total playing time: 33:36

(IMG:http://metalarea.org/images/myspace.png)


Technical info
(IMG:http://metalarea.org/images/spectrogram/2017_Oct/0aa39f67d98bd28a7451b2b0ee60b56d.png)
Input File: 02. Par-del? les dunes de cadavres.mp3
Channels : 2
Sample Rate : 44100
Precision : 16-bit
Duration : 00:08:13.26 = 21752546 samples = 36994.1 CDDA sectors
File Size : 20.0M
Bit Rate : 325k
Sample Encoding: MPEG audio (layer I, II or III)
Comments :
Title=Par-delР° les dunes de cadavres
Artist=Savage Annihilation
Album=Quand S'abaisse La Croix Du BlasphРёme
Tracknumber=2/6
Year=2017



Register


Вернуться к началу страницы
  Insert nick Quick quote
+Цитировать сообщение
 
Создать новую тему
Replies (1 - 1)
post Oct 12 2017, 16:32:01
Post #2

Правь статус, ####!111
**************
Group: Металариец
Posts: 12,183
Releases: 8798
From: Г.Харьков
On Forums: 5 years 9 months
Thanks: 140819 time(s)
Unknown


Register


Вернуться к началу страницы
  Insert nick Quick quote
+Цитировать сообщение

ОтветитьСоздать новую тему
2 User(s) are reading this topic (2 Guests and 0 Anonymous Users)
0 Members:

 



- Lo-Fi Version Support form
Copyrights and abuse reports form
Time is now: 18th February 2018 - 04:20:10