Welcome Guest ( Log In | Register )

> Claim The Throne - On Desolate Plains (2017), Melodic Death/Folk Metal
post Oct 12 2017, 13:36:43
Post #1

Аннигилятор пивА
Group Icon
Group: V.I.P
Posts: 45,695
Releases: 13643
From: Koenigsberg - TILZIT
On Forums: 11 years 8 months
Thanks: 301929 time(s)
Russian Federation


(IMG:https://metalarea.org/images/audiocovers/2017_Oct/acov_tid296053_thumb.jpg)

*Artist: Claim The Throne
*Album: On Desolate Plains
*Year: 2017
*Genre: Melodic Death/Folk Metal
*Country: Australia (IMG:https://metalarea.org/forum/style_images/flags/Australia.png)
*Format: mp3@CBR320kbps
*Size: 126MB

Tracklist:
01. Fury Entwined 05:41
02. On Desolate Plains 03:56
03. Spirit Of Fire 04:23
04. Mantra 05:28
05. Where Night Passed And Sunlight Shone 05:55
06. Silence Beckoning 04:20
07. Windfall 04:23
08. This Agony Endured 04:20
09. My Dying Throes 06:14
10. Everblade 05:15
11. Harbinger, Scavenger 06:08
12. Of Creation 03:42
******************************
Total playing time: 59:45




Extended info

Lord Jim - Bass, Vocals (2004-present) See also: Disentomb, Entrails Eradicated, ex-Blowtorch Abortion, ex-Earth Rot, ex-Chainsaw Charlie and the Chocolate Cha Cha Factory, ex-Petrol Powered Goon Bag Holocaust
Baronaxe - Vocals, Guitars (2004-present) See also: Red Descending
Jesselina - Keyboards, Vocals (2008-present)
Oscarius - Drums (2009-present) See also: ex-Dyscord
Dysie - Guitars, Vocals (2010-present) See also: ex-Choke, ex-Cuntscrape, ex-Pathogen


Technical info
(IMG:https://metalarea.org/images/spectrogram/2017_Oct/02337178e3f245da6f04ff1374bfe567.png)
Input File: 1 Fury Entwined.mp3
Channels : 2
Sample Rate : 44100
Precision : 16-bit
Duration : 00:05:41.82 = 15074306 samples = 25636.6 CDDA sectors
File Size : 13.7M
Bit Rate : 321k
Sample Encoding: MPEG audio (layer I, II or III)
Comments :
Title=Fury Entwined
Artist=Claim the Throne
Album=On Desolate Plains
Tracknumber=1/12
Year=2017
Genre=9
Discnumber=1/1



Register


Вернуться к началу страницы
  Insert nick Quick quote
+Цитировать сообщение
 
Создать новую тему
Replies (1 - 2)
post Oct 12 2017, 16:38:04
Post #2

Аннигилятор пивА
Group Icon
Group: V.I.P
Posts: 45,695
Releases: 13643
From: Koenigsberg - TILZIT
On Forums: 11 years 8 months
Thanks: 301929 time(s)
Russian Federation


MIRROR
Register




Вернуться к началу страницы
  Insert nick Quick quote
+Цитировать сообщение
post Oct 22 2017, 04:52:26
Post #3

Ъ
**************
Group: Металариец
Posts: 8,943
Releases: 9
On Forums: 9 years 1 month
Thanks: 1661 time(s)
Sweden


Третьесорт.
Вернуться к началу страницы
  Insert nick Quick quote
+Цитировать сообщение

ОтветитьСоздать новую тему
2 User(s) are reading this topic (2 Guests and 0 Anonymous Users)
0 Members:

 



- Lo-Fi Version Support form
Copyrights and abuse reports form
Time is now: 18th February 2018 - 04:21:16