Welcome Guest ( Log In | Register )

> Forsaken - Pentateuch (2017), Epic Doom Metal (D)
post Oct 12 2017, 13:37:16
Post #1

Serial Uploader
Group Icon
Group: V.I.P
Posts: 32,736
Releases: 31034
From: Lithuania
On Forums: 10 years 2 weeks
Thanks: 355758 time(s)
Lithuania


(IMG:http://metalarea.org/images/audiocovers/2017_Oct/acov_tid296054_thumb.jpg)

*Artist: Forsaken
*Album: Pentateuch
*Year: 2017
*Genre: Epic Doom Metal
*Country: Malta (IMG:http://metalarea.org/forum/style_images/flags/Malta.png)
*Format: mp3@CBR320kbps
*Size: 126MB

Tracklist:
01. Phaneros (Coming to Light)
02. Serpent Bride
03. The Banishment
04. Primal Wound
05. The Dove and the Raven
06. Decalogue
07. Sabaoth (The Law Giver)
08. Apocryphal Winds
******************************
Total playing time: 54:43

(IMG:http://metalarea.org/images/myspace.png)


Technical info
(IMG:http://metalarea.org/images/spectrogram/2017_Oct/a8471adee68fa53ecdd1046078aed408.png)
Input File: 02. Serpent Bride.mp3
Channels : 2
Sample Rate : 44100
Precision : 16-bit
Duration : 00:06:57.83 = 18426347 samples = 31337.3 CDDA sectors
File Size : 16.9M
Bit Rate : 323k
Sample Encoding: MPEG audio (layer I, II or III)
Comments :
Title=Serpent Bride
Artist=Forsaken
Album=Pentateuch
Tracknumber=2/8
Year=2017



Register


Go to the top of the page
  Insert nick Quick quote
+Quote Post
 
Start new topic
Replies (1 - 5)
post Oct 12 2017, 16:31:47
Post #2

Аннигилятор пивА
Group Icon
Group: V.I.P
Posts: 46,863
Releases: 14080
From: Koenigsberg - TILZIT
On Forums: 12 years 3 weeks
Thanks: 312395 time(s)
Russian Federation


129/320
Register


Go to the top of the page
  Insert nick Quick quote
+Quote Post
post Oct 12 2017, 20:58:44
Post #3

Ёлд ХеллоВяйне
Group Icon
Group: V.I.P
Posts: 25,585
Releases: 130
From: Питер
On Forums: 11 years 7 months
Thanks: 14079 time(s)
Russian Federation


Go to the top of the page
  Insert nick Quick quote
+Quote Post
post Oct 12 2017, 21:01:02
Post #4

Правь статус, ####!111
**************
Group: Металариец
Posts: 2,729
Releases: 0
From: Киев
On Forums: 10 years 1 month
Thanks: 1604 time(s)
Ukraine


Года три-четыре назад ознакамливался с бэк-каталогом сабжа. Произвели впечатление недокэндлмэсса. Т.е. вроде бы стараются, но как-то не особо самобытно и не особо выразительно.
Go to the top of the page
  Insert nick Quick quote
+Quote Post
post Oct 22 2017, 05:36:04
Post #5

Ъ
**************
Group: Металариец
Posts: 9,066
Releases: 9
On Forums: 9 years 5 months
Thanks: 1718 time(s)
Sweden


Осилил пару треков, третьесорт.
Go to the top of the page
  Insert nick Quick quote
+Quote Post
post Oct 24 2017, 11:18:26
Post #6

hearer & reader
**************
Group: Металариец
Posts: 6,406
Releases: 81
From: Moscow
On Forums: 10 years 9 months
Thanks: 6418 time(s)
Russian Federation


Перегруз жуткий, у меня сейчас уши отвалятся..
Ну да хек с ними..
Go to the top of the page
  Insert nick Quick quote
+Quote Post

Reply to this topicStart new topic
1 User(s) are reading this topic (1 Guests and 0 Anonymous Users)
0 Members:

 



- Lo-Fi Version Support form
Copyrights and abuse reports form
Time is now: 23rd June 2018 - 16:45:24