Welcome Guest ( Log In | Register )

> Nephren-Ka - La Grande Guerre De L'épice (2017), Technical Death Metal
post Oct 12 2017, 13:43:44
Post #1

Serial Uploader
Group Icon
Group: V.I.P
Posts: 32,736
Releases: 31034
From: Lithuania
On Forums: 10 years 2 weeks
Thanks: 355758 time(s)
Lithuania


(IMG:http://metalarea.org/images/audiocovers/2017_Oct/acov_tid296055_thumb.jpg)

*Artist: Nephren-Ka
*Album: La Grande Guerre De L'épice
*Year: 2017
*Genre: Technical Death Metal
*Country: France (IMG:http://metalarea.org/forum/style_images/flags/France.png)
*Format: mp3@CBR320kbps
*Size: 86MB

Tracklist:
01. Watch And Learn
02. Plan To Master The Universe
03. The Demise Of Ix
04. Proditoris Gloriosa
05. Idar Fen Adijica
06. New Melange For The Real God
07. The Great Spice War
08. Fenring's Test
09. From High Hopes To Failure Complete
10. Regarde Et Apprends
******************************
Total playing time: 41:32

(IMG:http://metalarea.org/images/myspace.png)



Technical info
(IMG:http://metalarea.org/images/spectrogram/2017_Oct/50639e06e2c3607750274d339534007f.png)
Input File: 02 Plan to Master the Universe.mp3
Channels : 2
Sample Rate : 44100
Precision : 16-bit
Duration : 00:02:37.77 = 6957701 samples = 11832.8 CDDA sectors
File Size : 6.31M
Bit Rate : 320k
Sample Encoding: MPEG audio (layer I, II or III)
Comments :
Title=Plan to Master the Universe
Artist=Nephren-Ka
Album=La grande guerre de l'epice
Tracknumber=2
Year=2017



Register


Go to the top of the page
  Insert nick Quick quote
+Quote Post
 
Start new topic
Replies (1 - 7)
post Oct 12 2017, 16:28:53
Post #2

Аннигилятор пивА
Group Icon
Group: V.I.P
Posts: 46,863
Releases: 14080
From: Koenigsberg - TILZIT
On Forums: 12 years 3 weeks
Thanks: 312396 time(s)
Russian Federation


320/86MB
Register


Go to the top of the page
  Insert nick Quick quote
+Quote Post
post Oct 13 2017, 14:03:50
Post #3

hearer & reader
**************
Group: Металариец
Posts: 6,406
Releases: 81
From: Moscow
On Forums: 10 years 9 months
Thanks: 6418 time(s)
Russian Federation



Исправь трек-лист:
10. Mirror Mirror (Bonus track - Candlemass cover) 06:39 (IMG:style_emoticons/default/look.gif)
Неплохой кавер, но лучше оригинала не сделать..

Надо бы и бонусы CD:
10. Regarde et apprends
12. Tomorrow (Panzerchrist cover)
... если они там будут. На Dolorem Records инфы не нашёл.
Go to the top of the page
  Insert nick Quick quote
+Quote Post
post Oct 29 2017, 19:33:05
Post #4

Девять Литров
*********
Group: Металариец
Posts: 964
Releases: 0
On Forums: 9 years 3 months
Thanks: 333 time(s)
Antarctica


Дуболомы типа Origin, только похлеще. Немного однообразно, но слушать можно.
Go to the top of the page
  Insert nick Quick quote
+Quote Post
post Oct 29 2017, 21:02:21
Post #5

И Ван Дамм По Делам Вашим!
**************
Group: Металариец
Posts: 15,726
Releases: 27
On Forums: 9 years 11 months
Thanks: 8285 time(s)
Honduras


ЦИТАТА(AHBAnep @ Oct 13 2017, 15:03:50) *

Исправь трек-лист:
10. Mirror Mirror (Bonus track - Candlemass cover) 06:39 (IMG:style_emoticons/default/look.gif)
Неплохой кавер, но лучше оригинала не сделать..

С него и начал слушать.Candlemass с бластбитами это нечто.
Go to the top of the page
  Insert nick Quick quote
+Quote Post
post Dec 4 2017, 15:41:04
Post #6

Schuldinerist
**************
Group: Металариец
Posts: 9,689
Releases: 33
From:
On Forums: 11 years 2 months
Thanks: 5789 time(s)
Russian Federation


Мощный материал, мне как-то сразу понравился альбом и не перестает.
Гармонично и в меру технично.
Гроул очень уверенный.
В личный топ года.
8+/10
Go to the top of the page
  Insert nick Quick quote
+Quote Post
post Dec 8 2017, 18:52:46
Post #7

И Ван Дамм По Делам Вашим!
**************
Group: Металариец
Posts: 15,726
Releases: 27
On Forums: 9 years 11 months
Thanks: 8285 time(s)
Honduras


Честно, пытался послушать два раза.Очень быстро утомляют они меня.Окромя ковера Candlemass не запоминается ничего.Долбиловом сейчас вряд ли кого удивить можно.


Thanks:
(1) Lux,
Go to the top of the page
  Insert nick Quick quote
+Quote Post
post Feb 10 2018, 12:40:49
Post #8

Empty Words
***********
Group: Металариец
Posts: 1,868
Releases: 7
From: Москва
On Forums: 8 years 10 months
Thanks: 2126 time(s)
Russian Federation


Послушал раза три. Ну, стало не так задр0тно, как на прошлых альбомах, приблизились к более вменяемому технобруталу. Уже можно слушать, но можно и не слушать: ничего интересного здесь нет.
Go to the top of the page
  Insert nick Quick quote
+Quote Post

Reply to this topicStart new topic
1 User(s) are reading this topic (1 Guests and 0 Anonymous Users)
0 Members:

 



- Lo-Fi Version Support form
Copyrights and abuse reports form
Time is now: 23rd June 2018 - 16:58:38