Welcome Guest ( Log In | Register )

> WarCall - Invaders (2017), Melodic Death Metal (D4)
post Oct 12 2017, 13:50:35
Post #1

Serial Uploader
Group Icon
Group: V.I.P
Posts: 33,058
Releases: 31343
From: Lithuania
On Forums: 10 years 3 months
Thanks: 358581 time(s)
Lithuania


(IMG:http://metalarea.org/images/audiocovers/2017_Oct/acov_tid296056_thumb.jpg)

*Artist: WarCall
*Album: Invaders
*Year: 2017
*Genre: Melodic Death Metal
*Country: Canada (IMG:http://metalarea.org/forum/style_images/flags/Canada.png)
*Format: mp3@CBR320kbps
*Size: 105MB

Tracklist:
01. Mission Commando 04:46
02. Riding with Zombies 03:33
03. Bully Bastard 03:13
04. Mass Extinction 04:33
05. The Man Who Suffers 05:33
06. Fight Back 04:25
07. Black Panther 03:30
08. Through the Dusk 04:09
09. Para Bellum 04:07
10. Alien Forces 05:49
******************************
Total playing time: 43:38

(IMG:http://metalarea.org/images/myspace.png)



Technical info
(IMG:http://metalarea.org/images/spectrogram/2017_Oct/2c6879e790b9efafb7be1273233c3b24.png)
Input File: 02. Riding with Zombies.mp3
Channels : 2
Sample Rate : 44100
Precision : 16-bit
Duration : 00:03:33.27 = 9405075 samples = 15995 CDDA sectors
File Size : 8.86M
Bit Rate : 332k
Sample Encoding: MPEG audio (layer I, II or III)
Comments :
Title=Riding with Zombies
Artist=WARCALL
Album=Invaders
Tracknumber=2/10
Year=2017



Register


Go to the top of the page
  Insert nick Quick quote
+Quote Post
 
Start new topic
Replies (1 - 3)
post Oct 14 2017, 17:35:38
Post #2

Маньяк
**********
Group: Металариец
Posts: 1,303
Releases: 0
From: Dnipro
On Forums: 10 years 2 months
Thanks: 359 time(s)
Ukraine


Go to the top of the page
  Insert nick Quick quote
+Quote Post
post Oct 22 2017, 04:15:59
Post #3

Ъ
**************
Group: Металариец
Posts: 9,151
Releases: 9
On Forums: 9 years 8 months
Thanks: 1747 time(s)
Sweden


Третьесорт.
Go to the top of the page
  Insert nick Quick quote
+Quote Post
post Oct 29 2017, 12:37:03
Post #4

Перевозчик
**************
Group: Металариец
Posts: 2,757
Releases: 0
On Forums: 10 years 2 months
Thanks: 574 time(s)
Russian Federation




Thanks:
(1) MMMMM,
Go to the top of the page
  Insert nick Quick quote
+Quote Post

Reply to this topicStart new topic
1 User(s) are reading this topic (1 Guests and 0 Anonymous Users)
0 Members:

 



- Lo-Fi Version Support form
Copyrights and abuse reports form
Time is now: 20th September 2018 - 12:08:40