Welcome Guest ( Log In | Register )

> The King Is Blind - We Are The Parasite, We Are The Cancer (2017), Doom/Death Metal (D4)
post Oct 12 2017, 13:53:42
Post #1

Serial Uploader
Group Icon
Group: V.I.P
Posts: 32,736
Releases: 31034
From: Lithuania
On Forums: 10 years 2 weeks
Thanks: 355758 time(s)
Lithuania


(IMG:http://metalarea.org/images/audiocovers/2017_Oct/acov_tid296057_thumb.jpg)

*Artist: The King Is Blind
*Album: We Are The Parasite, We Are The Cancer
*Year: 2017
*Genre: Doom/Death Metal
*Country: United Kingdom (IMG:http://metalarea.org/forum/style_images/flags/United%20Kingdom.png)
*Format: mp3@CBR320kbps
*Size: 100MB

Tracklist:
01. Patriarch
02. Embers from a Dying Son (Plague: Gula)
03. Like Gods Departed (Plague: Acedia)
04. Mantra XIII (Plague: Avaritia)
05. The Sky Is a Mirror (Plague: Luxuria)
06. Idolatry of Self (Plague: Superbia)
07. As Vermin Swarm (Plague: Ira)
08. GodFrost (Plague: Invidia)
09. The Burden of Their Scars
******************************
Total playing time: 42:38





Technical info
(IMG:http://metalarea.org/images/spectrogram/2017_Oct/236192b78a597e5af2a10af8857130cd.png)
Input File: 02. Embers from a Dying Son (Plague_ Gula).mp3
Channels : 2
Sample Rate : 44100
Precision : 16-bit
Duration : 00:03:58.77 = 10529625 samples = 17907.5 CDDA sectors
File Size : 9.68M
Bit Rate : 324k
Sample Encoding: MPEG audio (layer I, II or III)
Comments :
Title=Embers from a Dying Son (Plague: Gula)
Artist=The King Is Blind
Album=We Are the Parasite, We Are the Cancer
Tracknumber=2/9
Year=2017



Register


Go to the top of the page
  Insert nick Quick quote
+Quote Post
 
Start new topic
Replies (1 - 6)
post Oct 12 2017, 21:14:51
Post #2

Шесть Литров
******
Group: Металариец
Posts: 551
Releases: 0
On Forums: 9 years 1 month
Thanks: 187 time(s)
Belarus


Длина композиций указывает на тот факт, что если тут и присутствует Doom Metal, то в минимальном количестве, близким к нулю. А если сравнивать данный материал с адекватными аналогами, то до Unleashed или Sepultura, ему как до луны.
Go to the top of the page
  Insert nick Quick quote
+Quote Post
post Oct 14 2017, 20:47:31
Post #3

Ледоруб
**************
Group: Металариец
Posts: 19,826
Releases: 0
From: Санкт-Петербург
On Forums: 8 years 9 months
Thanks: 6467 time(s)
Russian Federation


Короткометражный дум? Надо брать!
Go to the top of the page
  Insert nick Quick quote
+Quote Post
post Oct 14 2017, 20:58:32
Post #4

Попсовик от брутала
**************
Group: Металариец
Posts: 5,938
Releases: 56
From: Минск
On Forums: 9 years 6 months
Thanks: 4797 time(s)
Belarus


ЦИТАТА(DeathCoveR @ 12th October 2017 - 23:14:51) *
Unleashed или Sepultura

Какие похожие группы.


Thanks:
Go to the top of the page
  Insert nick Quick quote
+Quote Post
post Oct 17 2017, 02:36:22
Post #5

Победитель судьбы
**************
Group: Металариец
Posts: 4,993
Releases: 0
From: Страны Мамонтов
On Forums: 11 years 4 months
Thanks: 1698 time(s)
Antarctica


ЦИТАТА(Tular @ Oct 14 2017, 22:58:32) *
Какие похожие группы.

Какие похожие doom-группы.


Thanks:
(1) Deze,
Go to the top of the page
  Insert nick Quick quote
+Quote Post
post Oct 18 2017, 10:42:02
Post #6

...Only Death Is Real...
**************
Group: Металариец
Posts: 2,626
Releases: 15
On Forums: 7 years 11 months
Thanks: 1615 time(s)
Russian Federation


ЦИТАТА(DeathCoveR @ Oct 13 2017, 01:14:51) *
А если сравнивать данный материал с адекватными аналогами, то до Unleashed или Sepultura, ему как до луны.

(IMG:style_emoticons/default/facessspalm.png)
Go to the top of the page
  Insert nick Quick quote
+Quote Post
post Mar 27 2018, 19:52:16
Post #7

brutalcesar
**************
Group: Металариец
Posts: 17,524
Releases: 67
From: Рязань
On Forums: 9 years 5 months
Thanks: 8674 time(s)
Russian Federation


Register
Go to the top of the page
  Insert nick Quick quote
+Quote Post

Reply to this topicStart new topic
1 User(s) are reading this topic (1 Guests and 0 Anonymous Users)
0 Members:

 



- Lo-Fi Version Support form
Copyrights and abuse reports form
Time is now: 23rd June 2018 - 16:43:33