Welcome Guest ( Log In | Register )

> Cadaveric Incubator - Sermons Of The Devouring Dead (2017), Death Metal/Grindcore (D4)
post Oct 12 2017, 13:56:39
Post #1

Правь статус, ####!111
**************
Group: Металариец
Posts: 13,384
Releases: 9428
From: Г.Харьков
On Forums: 6 years 1 month
Thanks: 153965 time(s)
Unknown


(IMG:https://metalarea.org/images/audiocovers/2017_Oct/acov_tid296058_thumb.jpg)

*Artist: Cadaveric Incubator
*Album: Sermons Of The Devouring Dead
*Year: 2017
*Genre: Death Metal/Grindcore
*Country: Finland (IMG:https://metalarea.org/forum/style_images/flags/Finland.png)
*Format: mp3@CBR320kbps
*Size: 69MB

Tracklist:
1. Gravestench Asphyxiation 02:25
2. Hideous Premonition 02:37
3. Cadaveric Incubator 01:54
4. The Covenant of Gore 01:45
5. Cold in Casket 01:06
6. Rite of Eibon 03:30
7. Massacred 01:46
8. Swarming Decay 02:13
9. Unburied Abominations 02:25
10. Conceived in Filth 03:22
11. The Undead Fiend 02:03
12. Horrific Festering Plagues 03:57
******************************
Total playing time: 29:03




Technical info
(IMG:https://metalarea.org/images/spectrogram/2017_Oct/78d1340a6df8b1ca2dd7104bbc81523d.png)
Input File: 02 - Hideous Premonition.mp3
Channels : 2
Sample Rate : 44100
Precision : 16-bit
Duration : 00:02:37.35 = 6939223 samples = 11801.4 CDDA sectors
File Size : 6.48M
Bit Rate : 330k
Sample Encoding: MPEG audio (layer I, II or III)
Comments :
Title=Hideous Premonition
Artist=Cadaveric Incubator
Album=Sermons of the Devouring Dead
Tracknumber=2/12
Year=2017



Register


Go to the top of the page
  Insert nick Quick quote
+Quote Post
 
Start new topic
Replies (1 - 4)
post Oct 12 2017, 16:37:39
Post #2

Правь статус, ####!111
**************
Group: Металариец
Posts: 13,384
Releases: 9428
From: Г.Харьков
On Forums: 6 years 1 month
Thanks: 153965 time(s)
Unknown


Register


Go to the top of the page
  Insert nick Quick quote
+Quote Post
post Oct 12 2017, 21:42:37
Post #3

Маньяк
**********
Group: Металариец
Posts: 1,184
Releases: 0
On Forums: 10 years 4 months
Thanks: 421 time(s)
Russian Federation


Думал не зайдёт сей альбом после зашибисьного свежака от NARCOTIC WASTELAND, но нет, хороший такой добротный grindcore'n'deathmetal выдали суомцы


Go to the top of the page
  Insert nick Quick quote
+Quote Post
post Oct 14 2017, 13:02:17
Post #4

As Above, so Below
***********
Group: Металариец
Posts: 1,859
Releases: 17
On Forums: 8 years 6 months
Thanks: 3675 time(s)
Russian Federation


Походу это альбом года в deathgrind для меня. Вот даже придраться ни к чему не могу, разве что ещё минут 5-10 бы материала.


Go to the top of the page
  Insert nick Quick quote
+Quote Post
post Yesterday, 19:49:51
Post #5

Black is beautiful
***********
Group: Металариец
Posts: 1,577
Releases: 3
On Forums: 6 years 3 months
Thanks: 274 time(s)
Unknown


Great, what a massacre! (IMG:style_emoticons/default/pray.gif) (IMG:style_emoticons/default/pray.gif)
Go to the top of the page
  Insert nick Quick quote
+Quote Post

Reply to this topicStart new topic
1 User(s) are reading this topic (1 Guests and 0 Anonymous Users)
0 Members:

 



- Lo-Fi Version Support form
Copyrights and abuse reports form
Time is now: 23rd June 2018 - 16:43:47