Welcome Guest ( Log In | Register )

> Cadaveric Incubator - Sermons Of The Devouring Dead (2017), Death Metal/Grindcore (D4)
post Oct 12 2017, 13:56:39
Post #1

Правь статус, ####!111
**************
Group: Металариец
Posts: 12,220
Releases: 8827
From: Г.Харьков
On Forums: 5 years 9 months
Thanks: 141377 time(s)
Unknown


(IMG:https://metalarea.org/images/audiocovers/2017_Oct/acov_tid296058_thumb.jpg)

*Artist: Cadaveric Incubator
*Album: Sermons Of The Devouring Dead
*Year: 2017
*Genre: Death Metal/Grindcore
*Country: Finland (IMG:https://metalarea.org/forum/style_images/flags/Finland.png)
*Format: mp3@CBR320kbps
*Size: 69MB

Tracklist:
1. Gravestench Asphyxiation 02:25
2. Hideous Premonition 02:37
3. Cadaveric Incubator 01:54
4. The Covenant of Gore 01:45
5. Cold in Casket 01:06
6. Rite of Eibon 03:30
7. Massacred 01:46
8. Swarming Decay 02:13
9. Unburied Abominations 02:25
10. Conceived in Filth 03:22
11. The Undead Fiend 02:03
12. Horrific Festering Plagues 03:57
******************************
Total playing time: 29:03




Technical info
(IMG:https://metalarea.org/images/spectrogram/2017_Oct/78d1340a6df8b1ca2dd7104bbc81523d.png)
Input File: 02 - Hideous Premonition.mp3
Channels : 2
Sample Rate : 44100
Precision : 16-bit
Duration : 00:02:37.35 = 6939223 samples = 11801.4 CDDA sectors
File Size : 6.48M
Bit Rate : 330k
Sample Encoding: MPEG audio (layer I, II or III)
Comments :
Title=Hideous Premonition
Artist=Cadaveric Incubator
Album=Sermons of the Devouring Dead
Tracknumber=2/12
Year=2017



Register


Вернуться к началу страницы
  Insert nick Quick quote
+Цитировать сообщение
 
Создать новую тему
Replies (1 - 3)
post Oct 12 2017, 16:37:39
Post #2

Правь статус, ####!111
**************
Group: Металариец
Posts: 12,220
Releases: 8827
From: Г.Харьков
On Forums: 5 years 9 months
Thanks: 141377 time(s)
Unknown


Register


Вернуться к началу страницы
  Insert nick Quick quote
+Цитировать сообщение
post Oct 12 2017, 21:42:37
Post #3

Маньяк
**********
Group: Металариец
Posts: 1,124
Releases: 0
On Forums: 10 years 2 weeks
Thanks: 380 time(s)
Russian Federation


Думал не зайдёт сей альбом после зашибисьного свежака от NARCOTIC WASTELAND, но нет, хороший такой добротный grindcore'n'deathmetal выдали суомцы


Thanks:
Вернуться к началу страницы
  Insert nick Quick quote
+Цитировать сообщение
post Oct 14 2017, 13:02:17
Post #4

As Above, so Below
***********
Group: Металариец
Posts: 1,855
Releases: 17
On Forums: 8 years 2 months
Thanks: 3629 time(s)
Russian Federation


Походу это альбом года в deathgrind для меня. Вот даже придраться ни к чему не могу, разве что ещё минут 5-10 бы материала.


Thanks:
Вернуться к началу страницы
  Insert nick Quick quote
+Цитировать сообщение

ОтветитьСоздать новую тему
1 User(s) are reading this topic (1 Guests and 0 Anonymous Users)
0 Members:

 



- Lo-Fi Version Support form
Copyrights and abuse reports form
Time is now: 24th February 2018 - 03:17:35