Welcome Guest ( Log In | Register )

> Minotauro - Apocalyptic Sense (2017), Power Metal
post Oct 12 2017, 14:03:00
Post #1

Serial Uploader
Group Icon
Group: V.I.P
Posts: 31,385
Releases: 29721
From: Lithuania
On Forums: 9 years 8 months
Thanks: 341393 time(s)
Lithuania


(IMG:http://metalarea.org/images/audiocovers/2017_Oct/acov_tid296059_thumb.jpg)

*Artist: Minotauro
*Album: Apocalyptic Sense
*Year: 2017
*Genre: Power Metal
*Country: Italy (IMG:http://metalarea.org/forum/style_images/flags/Italy.png)
*Format: mp3@CBR320kbps
*Size: 103MB

Tracklist:
01. Landless Soldiers
02. Fields of Symphobia
03. Seven
04. All Seeing Eye
05. Braindigger
06. Apocalyptic Sense
07. Son of a Witch
08. Graveyard Symphony
09. Easy Living
******************************
Total playing time: 44:43

(IMG:http://metalarea.org/images/myspace.png)


Technical info
(IMG:http://metalarea.org/images/spectrogram/2017_Oct/592eeda2150475e105cb3cef2e226acd.png)
Input File: 02. Fields of Symphobia.mp3
Channels : 2
Sample Rate : 44100
Precision : 16-bit
Duration : 00:04:51.71 = 12864543 samples = 21878.5 CDDA sectors
File Size : 11.8M
Bit Rate : 323k
Sample Encoding: MPEG audio (layer I, II or III)
Comments :
Title=Fields of Symphobia
Artist=Minotauro
Album=Apocalyptic Sense
Tracknumber=2/9
Year=2017



Register


Вернуться к началу страницы
  Insert nick Quick quote
+Цитировать сообщение
 
Создать новую тему
Replies (1 - 2)
post Oct 12 2017, 16:44:44
Post #2

Правь статус, ####!111
**************
Group: Металариец
Posts: 12,183
Releases: 8798
From: Г.Харьков
On Forums: 5 years 9 months
Thanks: 140819 time(s)
Unknown


Register


Thanks:
Вернуться к началу страницы
  Insert nick Quick quote
+Цитировать сообщение
post Oct 29 2017, 12:36:23
Post #3

Перевозчик
**************
Group: Металариец
Posts: 2,650
Releases: 0
On Forums: 9 years 7 months
Thanks: 528 time(s)
Russian Federation




Яичный, точнее безъяичный павер.
Вернуться к началу страницы
  Insert nick Quick quote
+Цитировать сообщение

ОтветитьСоздать новую тему
2 User(s) are reading this topic (2 Guests and 0 Anonymous Users)
0 Members:

 



- Lo-Fi Version Support form
Copyrights and abuse reports form
Time is now: 18th February 2018 - 04:18:44