Welcome Guest ( Log In | Register )

> Altarage - Endinghent (2017), Black/Death Metal
post Oct 12 2017, 14:07:22
Post #1

Правь статус, ####!111
**************
Group: Металариец
Posts: 14,249
Releases: 9891
From: Г.Харьков
On Forums: 6 years 4 months
Thanks: 162368 time(s)
Unknown


(IMG:https://metalarea.org/images/audiocovers/2017_Oct/acov_tid296060_thumb.jpg)

*Artist: Altarage
*Album: Endinghent
*Year: 2017
*Genre: Black/Death Metal
*Country: Spain (IMG:https://metalarea.org/forum/style_images/flags/Spain.png)
*Format: mp3@CBR320kbps
*Size: 78MB

Tracklist:
1. Incessant Magma 05:58
2. Spearheaderon 03:56
3. Cataclysmic Triada 03:33
4. Fold Eksis 03:03
5. Rift 04:56
6. Orb Terrax 04:06
7. Weighteer 06:31
8. Barrier 04:38
******************************
Total playing time: 36:41



Technical info
(IMG:https://metalarea.org/images/spectrogram/2017_Oct/98d832c5520a50403f119b4721a59c49.png)
Input File: 2 Spearheaderon.mp3
Channels : 2
Sample Rate : 44100
Precision : 16-bit
Duration : 00:03:56.30 = 10420918 samples = 17722.6 CDDA sectors
File Size : 9.53M
Bit Rate : 323k
Sample Encoding: MPEG audio (layer I, II or III)
Comments :
Title=Spearheaderon
Artist=Altarage
Album=Endinghent
Tracknumber=2/8
Year=2017
Genre=9
Discnumber=1/1



Register


Go to the top of the page
  Insert nick Quick quote
+Quote Post
 
Start new topic
Replies (1 - 3)
post Oct 12 2017, 16:34:24
Post #2

Правь статус, ####!111
**************
Group: Металариец
Posts: 14,249
Releases: 9891
From: Г.Харьков
On Forums: 6 years 4 months
Thanks: 162368 time(s)
Unknown


Register


Go to the top of the page
  Insert nick Quick quote
+Quote Post
post May 23 2018, 23:01:55
Post #3

Правь статус, ####!111
**************
Group: Металариец
Posts: 3,297
Releases: 9
From: Москва и МО
On Forums: 12 years 2 months
Thanks: 807 time(s)
Russian Federation


Ниче такая, модная вещь. Но приедается довольно скоро.
Go to the top of the page
  Insert nick Quick quote
+Quote Post
post Jun 22 2018, 20:40:53
Post #4

Black is beautiful
***********
Group: Металариец
Posts: 1,613
Releases: 3
On Forums: 6 years 6 months
Thanks: 279 time(s)
Unknown


Horny, they torture her guitars! (IMG:style_emoticons/default/true_black.gif) (IMG:style_emoticons/default/true_black.gif) (IMG:style_emoticons/default/true_black.gif)
Go to the top of the page
  Insert nick Quick quote
+Quote Post

Reply to this topicStart new topic
1 User(s) are reading this topic (1 Guests and 0 Anonymous Users)
0 Members:

 



- Lo-Fi Version Support form
Copyrights and abuse reports form
Time is now: 20th September 2018 - 11:50:55