Welcome Guest ( Log In | Register )

> ColdWorld - Wolves And Sheep [ep] (2017), Ambient/Depressive Black Metal
post Oct 12 2017, 14:13:05
Post #1

Шесть Литров
******
Group: Металариец
Posts: 553
Releases: 63
On Forums: 10 years 4 weeks
Thanks: 1390 time(s)
Portugal


(IMG:http://metalarea.org/images/audiocovers/2017_Oct/acov_tid296061_thumb.jpg)

*Artist: ColdWorld
*Album: Wolves And Sheep [ep]
*Year: 2017
*Genre: Ambient/Depressive Black Metal
*Country: Germany (IMG:http://metalarea.org/forum/style_images/flags/Germany.png)
*Format: mp3@CBR320kbps
*Size: 58MB

Tracklist:
1. Wolves And Sheep 12:41
2. The Cave/Wolves And Sheep II 12:02
******************************
Total playing time: 24:43



Extended info
CD-rip.


Technical info
(IMG:http://metalarea.org/images/spectrogram/2017_Oct/2c4e509c045bc9d2e8cabcb6a4f86078.png)
Input File: ColdWorld - 01 - Wolves And Sheep.mp3
Channels : 2
Sample Rate : 44100
Precision : 16-bit
Duration : 00:12:44.21 = 33701573 samples = 57315.6 CDDA sectors
File Size : 31.0M
Bit Rate : 325k
Sample Encoding: MPEG audio (layer I, II or III)
Comments :
Title=Wolves And Sheep
Artist=ColdWorld
Album=Wolves And Sheep
Tracknumber=1
Year=2017
Genre=Ambient/Depressive Black Metal



Register


Go to the top of the page
  Insert nick Quick quote
+Quote Post
 
Start new topic
Replies (1 - 8)
post Oct 12 2017, 16:35:01
Post #2
BAN
Banned till
Oct 23 2018, 12:27:08



Какой в попу депрессив? (IMG:style_emoticons/default/1488.gif)

Хипстер бм эс ис.
Go to the top of the page
  Insert nick Quick quote
+Quote Post
post Oct 12 2017, 17:05:37
Post #3

Кожаный ублюдок
**************
Group: Металариец
Posts: 2,909
Releases: 6
From: Алчевск (early) Некросибирск (now)
On Forums: 9 years 4 months
Thanks: 1657 time(s)
Russian Federation


ЦИТАТА(vosmidesijatye @ Oct 12 2017, 18:35:01) *
Хипстер бм эс ис.

Кому как не тебе знать в этом толк (IMG:style_emoticons/default/1488.gif)
Go to the top of the page
  Insert nick Quick quote
+Quote Post
post Oct 12 2017, 17:12:38
Post #4
BAN
Banned till
Nov 2 2018, 12:28:53



ЦИТАТА(vosmidesijatye @ 12th October 2017 - 18:35:01) *
Хипстер бм эс ис.

То, что надо.
Go to the top of the page
  Insert nick Quick quote
+Quote Post
post Oct 12 2017, 17:26:55
Post #5

Чёткий пацан из Автово...
Group Icon
Group: V.I.P
Posts: 8,849
Releases: 34
From: Город над вольной Невой...
On Forums: 12 years 3 months
Thanks: 4203 time(s)
Russian Federation


В былом любимчики (IMG:style_emoticons/default/smile3.gif)
Go to the top of the page
  Insert nick Quick quote
+Quote Post
post Oct 12 2017, 21:04:23
Post #6

Ёлд ХеллоВяйне
Group Icon
Group: V.I.P
Posts: 26,016
Releases: 130
From: Питер
On Forums: 11 years 10 months
Thanks: 14383 time(s)
Russian Federation




а то в шапке кривая
Go to the top of the page
  Insert nick Quick quote
+Quote Post
post Oct 12 2017, 21:24:45
Post #7

Шесть Литров
******
Group: Металариец
Posts: 652
Releases: 0
On Forums: 10 years 11 months
Thanks: 235 time(s)
Belarus


Звёзд с неба не хватает. Всё как у всех. Вспышка и потух.


Thanks:
Go to the top of the page
  Insert nick Quick quote
+Quote Post
post Oct 31 2017, 13:29:07
Post #8

Три Литра
***
Group: Завсегдатай
Posts: 259
Releases: 0
On Forums: 11 months 16 hours
Thanks: 99 time(s)
Unknown


Вроде бы не самый плохой материал но не более, послушать можно разок и забыть не стыдно. Блекло и вяло, а ведь первые альбомы хороши и проигрывали неоднократно
Go to the top of the page
  Insert nick Quick quote
+Quote Post
post Oct 31 2017, 13:32:09
Post #9
BAN
Banned till
Nov 2 2018, 12:28:53



Не оросило, слабее полноформата.
Go to the top of the page
  Insert nick Quick quote
+Quote Post

Reply to this topicStart new topic
1 User(s) are reading this topic (1 Guests and 0 Anonymous Users)
0 Members:

 



- Lo-Fi Version Support form
Copyrights and abuse reports form
Time is now: 24th September 2018 - 23:55:02