Welcome Guest ( Log In | Register )

> ColdWorld - Wolves And Sheep [ep] (2017), Ambient/Depressive Black Metal (D7)
post Oct 12 2017, 14:13:05
Post #1

Шесть Литров
******
Group: Металариец
Posts: 533
Releases: 56
On Forums: 9 years 5 months
Thanks: 1190 time(s)
Portugal


(IMG:http://metalarea.org/images/audiocovers/2017_Oct/acov_tid296061_thumb.jpg)

*Artist: ColdWorld
*Album: Wolves And Sheep [ep]
*Year: 2017
*Genre: Ambient/Depressive Black Metal
*Country: Germany (IMG:http://metalarea.org/forum/style_images/flags/Germany.png)
*Format: mp3@CBR320kbps
*Size: 58MB

Tracklist:
1. Wolves And Sheep 12:41
2. The Cave/Wolves And Sheep II 12:02
******************************
Total playing time: 24:43

Bandcamp

Extended info
CD-rip.


Technical info
(IMG:http://metalarea.org/images/spectrogram/2017_Oct/2c4e509c045bc9d2e8cabcb6a4f86078.png)
Input File: ColdWorld - 01 - Wolves And Sheep.mp3
Channels : 2
Sample Rate : 44100
Precision : 16-bit
Duration : 00:12:44.21 = 33701573 samples = 57315.6 CDDA sectors
File Size : 31.0M
Bit Rate : 325k
Sample Encoding: MPEG audio (layer I, II or III)
Comments :
Title=Wolves And Sheep
Artist=ColdWorld
Album=Wolves And Sheep
Tracknumber=1
Year=2017
Genre=Ambient/Depressive Black Metal



Register


Вернуться к началу страницы
  Insert nick Quick quote
+Цитировать сообщение
 
Создать новую тему
Replies (1 - 8)
post Oct 12 2017, 16:35:01
Post #2
BAN
RO till
Feb 18 2018, 18:47:57



Какой в попу депрессив? (IMG:style_emoticons/default/1488.gif)

Хипстер бм эс ис.
Вернуться к началу страницы
  Insert nick Quick quote
+Цитировать сообщение
post Oct 12 2017, 17:05:37
Post #3

Кожаный ублюдок
**************
Group: Металариец
Posts: 2,780
Releases: 6
From: Алчевск (early) Некросибирск (now)
On Forums: 8 years 9 months
Thanks: 1537 time(s)
Russian Federation


ЦИТАТА(vosmidesijatye @ Oct 12 2017, 18:35:01) *
Хипстер бм эс ис.

Кому как не тебе знать в этом толк (IMG:style_emoticons/default/1488.gif)
Вернуться к началу страницы
  Insert nick Quick quote
+Цитировать сообщение
post Oct 12 2017, 17:12:38
Post #4

Ледоруб
**************
Group: Металариец
Posts: 18,614
Releases: 0
From: Санкт-Петербург
On Forums: 8 years 5 months
Thanks: 6056 time(s)
Russian Federation


ЦИТАТА(vosmidesijatye @ 12th October 2017 - 18:35:01) *
Хипстер бм эс ис.

То, что надо.
Вернуться к началу страницы
  Insert nick Quick quote
+Цитировать сообщение
post Oct 12 2017, 17:26:55
Post #5

Чёткий пацан из Автово...
Group Icon
Group: V.I.P
Posts: 8,842
Releases: 34
From: Город над вольной Невой...
On Forums: 11 years 7 months
Thanks: 4159 time(s)
Russian Federation


В былом любимчики (IMG:style_emoticons/default/smile3.gif)
Вернуться к началу страницы
  Insert nick Quick quote
+Цитировать сообщение
post Oct 12 2017, 21:04:23
Post #6

Ёлд ХеллоВяйне
Group Icon
Group: V.I.P
Posts: 24,794
Releases: 129
From: Питер
On Forums: 11 years 3 months
Thanks: 13483 time(s)
Russian Federation




а то в шапке кривая
Вернуться к началу страницы
  Insert nick Quick quote
+Цитировать сообщение
post Oct 12 2017, 21:24:45
Post #7

Шесть Литров
******
Group: Металариец
Posts: 570
Releases: 0
On Forums: 10 years 3 months
Thanks: 174 time(s)
Belarus


Звёзд с неба не хватает. Всё как у всех. Вспышка и потух.


Thanks:
Вернуться к началу страницы
  Insert nick Quick quote
+Цитировать сообщение
post Oct 31 2017, 13:29:07
Post #8

Два Литра
**
Group: Завсегдатай
Posts: 106
Releases: 0
On Forums: 3 months 3 weeks
Thanks: 34 time(s)
United States


Вроде бы не самый плохой материал но не более, послушать можно разок и забыть не стыдно. Блекло и вяло, а ведь первые альбомы хороши и проигрывали неоднократно
Вернуться к началу страницы
  Insert nick Quick quote
+Цитировать сообщение
post Oct 31 2017, 13:32:09
Post #9

Ледоруб
**************
Group: Металариец
Posts: 18,614
Releases: 0
From: Санкт-Петербург
On Forums: 8 years 5 months
Thanks: 6056 time(s)
Russian Federation


Не оросило, слабее полноформата.
Вернуться к началу страницы
  Insert nick Quick quote
+Цитировать сообщение

ОтветитьСоздать новую тему
2 User(s) are reading this topic (2 Guests and 0 Anonymous Users)
0 Members:

 



- Lo-Fi Version Support form
Copyrights and abuse reports form
Time is now: 18th February 2018 - 04:20:35