Welcome Guest ( Log In | Register )

> Sicarius - Serenade Of Slitting Throats (2017), Black Metal
post Oct 12 2017, 14:16:22
Post #1

Serial Uploader
Group Icon
Group: V.I.P
Posts: 32,736
Releases: 31034
From: Lithuania
On Forums: 10 years 2 weeks
Thanks: 355758 time(s)
Lithuania


(IMG:http://metalarea.org/images/audiocovers/2017_Oct/acov_tid296062_thumb.jpg)

*Artist: Sicarius
*Album: Serenade Of Slitting Throats
*Year: 2017
*Genre: Black Metal
*Country: United States (IMG:http://metalarea.org/forum/style_images/flags/United%20States.png)
*Format: mp3@CBR320kbps
*Size: 98MB

Tracklist:
01. Flatline Noxiphilic
02. Ferox Impetum
03. Serenade of Slitting Throats
04. Torture Trials
05. Marshaling the Garroted
06. The Onyx Void
07. The Beast in Your Heart
08. Serpent Soul
09. Forceful Bleed
10. Wampyr
******************************
Total playing time: 46:37




Technical info
(IMG:http://metalarea.org/images/spectrogram/2017_Oct/e1eec03c5d949b8d85e81b202ec6e348.png)
Input File: 02-sicarius-ferox_impetum-bd7eb725.mp3
Channels : 2
Sample Rate : 44100
Precision : 16-bit
Duration : 00:03:48.07 = 10058019 samples = 17105.5 CDDA sectors
File Size : 9.12M
Bit Rate : 320k
Sample Encoding: MPEG audio (layer I, II or III)
Comments :
Title=Ferox Impetum
Artist=Sicarius
Album=Serenade of Slitting Throats
Tracknumber=2/10
Year=2017
Genre=138



Register


Go to the top of the page
  Insert nick Quick quote
+Quote Post
 
Start new topic
Replies (1 - 2)
post Oct 14 2017, 18:13:48
Post #2

Маньяк
**********
Group: Металариец
Posts: 1,075
Releases: 0
From: Dnipro
On Forums: 9 years 11 months
Thanks: 277 time(s)
Ukraine


А че, не плохо валят. (IMG:style_emoticons/default/20.gif)


Thanks:
(1) WOLAND,
Go to the top of the page
  Insert nick Quick quote
+Quote Post
post Jan 27 2018, 21:50:41
Post #3

Group: Подсевший
Posts: 38
Releases: 2
From: Moscow
On Forums: 12 years 3 months
Thanks: 111 time(s)
Russian Federation


ЦИТАТА(isvili @ Oct 14 2017, 20:13:48) *
А че, не плохо валят. (IMG:style_emoticons/default/20.gif)


Странно было бы, если бы играли "не очень", учитывая, кто у них продюсер и "консультант по звуку" - весьма известный Мик Кенни. По звучанию прослеживается влияние.


ЦИТАТА
Mick Kenney поделился публикацией Sicarius.
13 октября 2017 г. ·
Another record that I produced earlier this year just came out. If youre i to black metal you might like it
Go to the top of the page
  Insert nick Quick quote
+Quote Post

Reply to this topicStart new topic
1 User(s) are reading this topic (1 Guests and 0 Anonymous Users)
0 Members:

 



- Lo-Fi Version Support form
Copyrights and abuse reports form
Time is now: 23rd June 2018 - 16:59:07