Welcome Guest ( Log In | Register )

> Vassafor - Malediction (2017), Black Metal
post Oct 12 2017, 14:27:44
Post #1

Serial Uploader
Group Icon
Group: V.I.P
Posts: 31,468
Releases: 29800
From: Lithuania
On Forums: 9 years 8 months
Thanks: 342142 time(s)
Lithuania


(IMG:http://metalarea.org/images/audiocovers/2017_Oct/acov_tid296064_thumb.jpg)

*Artist: Vassafor
*Album: Malediction
*Year: 2017
*Genre: Black Metal
*Country: New Zealand (IMG:http://metalarea.org/forum/style_images/flags/New%20Zealand.png)
*Format: mp3@CBR320kbps
*Size: 123MB

Tracklist:
01. Devourer of a Thousand Worlds 16:26
02. Emergence (Of an Unconquerable One) 05:07
03. Elegy of the Accurser 03:12
04. Black Winds Victoryant 14:17
05. Illumination of the Sinister 10:45
******************************
Total playing time: 49:47





Technical info
(IMG:http://metalarea.org/images/spectrogram/2017_Oct/bd6760206f20471d5121f86869de7ee2.png)
Input File: 02 Emergence (Of an Unconquerable One).mp3
Channels : 2
Sample Rate : 44100
Precision : 16-bit
Duration : 00:05:04.99 = 13449839 samples = 22873.9 CDDA sectors
File Size : 12.2M
Bit Rate : 320k
Sample Encoding: MPEG audio (layer I, II or III)
Comments :
Title=Emergence (Of an Unconquerable One)
Artist=Vassafor
Album=Malediction
Tracknumber=2
Year=2017



Register


Вернуться к началу страницы
  Insert nick Quick quote
+Цитировать сообщение
 
Создать новую тему
Replies (1 - 6)
post Oct 12 2017, 16:31:06
Post #2

Аннигилятор пивА
Group Icon
Group: V.I.P
Posts: 45,782
Releases: 13668
From: Koenigsberg - TILZIT
On Forums: 11 years 8 months
Thanks: 302465 time(s)
Russian Federation


123/320
Register


Вернуться к началу страницы
  Insert nick Quick quote
+Цитировать сообщение
post Oct 13 2017, 13:14:07
Post #3

Crush! Kill! Destroy!
**************
Group: Металариец
Posts: 4,310
Releases: 15
From: Kaliningrad
On Forums: 10 years 3 months
Thanks: 4000 time(s)
Russian Federation


Наипревеликолепнейше!

Уж не знаю, чего и добавить.

Elegy of ... просто (IMG:style_emoticons/default/pray.gif) (IMG:style_emoticons/default/pray.gif) (IMG:style_emoticons/default/pray.gif)


Thanks:
(1) DarkHorde,
Вернуться к началу страницы
  Insert nick Quick quote
+Цитировать сообщение
post Oct 15 2017, 06:06:28
Post #4

Crush! Kill! Destroy!
**************
Group: Металариец
Posts: 4,310
Releases: 15
From: Kaliningrad
On Forums: 10 years 3 months
Thanks: 4000 time(s)
Russian Federation


И тишина. Один из лучших альбомов года, как обычно, пройдет мимо, по ходу. Все ушли обсуждать Е и техно-мело-кор.

Кстати для инфы - ЦД и ЛП версии будут иметь разные коврики и трек-листы, отличие в третьем треке:

03 - Elegy of the Accurser (CD release)
03 - Servitude (LP + Cassette Release)


Thanks:
Вернуться к началу страницы
  Insert nick Quick quote
+Цитировать сообщение
post Oct 16 2017, 20:27:33
Post #5

кручу наждак
**************
Group: Металариец
Posts: 2,845
Releases: 84
From: Самара
On Forums: 7 years 9 months
Thanks: 2264 time(s)
Russian Federation


По крайней мере не затеряется среди однообразных блэк-релизов.
Вернуться к началу страницы
  Insert nick Quick quote
+Цитировать сообщение
post Oct 17 2017, 08:04:27
Post #6

Crush! Kill! Destroy!
**************
Group: Металариец
Posts: 4,310
Releases: 15
From: Kaliningrad
On Forums: 10 years 3 months
Thanks: 4000 time(s)
Russian Federation


QUOTE(judaz @ Oct 16 2017, 21:27:33) *
По крайней мере не затеряется среди однообразных блэк-релизов.


Вот не факт, не факт. К сожалению.
Вернуться к началу страницы
  Insert nick Quick quote
+Цитировать сообщение
post Oct 17 2017, 08:11:28
Post #7

кручу наждак
**************
Group: Металариец
Posts: 2,845
Releases: 84
From: Самара
On Forums: 7 years 9 months
Thanks: 2264 time(s)
Russian Federation


ЦИТАТА(Dmitry1977 @ Oct 17 2017, 08:04:27) *
Вот не факт, не факт. К сожалению.

Не, я только себя имел в виду. Этот альбом как минимум останется в памяти, а не вылетит в другое ухо.
Вернуться к началу страницы
  Insert nick Quick quote
+Цитировать сообщение

ОтветитьСоздать новую тему
1 User(s) are reading this topic (1 Guests and 0 Anonymous Users)
0 Members:

 



- Lo-Fi Version Support form
Copyrights and abuse reports form
Time is now: 24th February 2018 - 03:14:30