Welcome Guest ( Log In | Register )

> Vassafor - Malediction (2017), Black Metal
post Oct 12 2017, 14:27:44
Post #1

Serial Uploader
Group Icon
Group: V.I.P
Posts: 33,073
Releases: 31358
From: Lithuania
On Forums: 10 years 3 months
Thanks: 358687 time(s)
Lithuania


(IMG:http://metalarea.org/images/audiocovers/2017_Oct/acov_tid296064_thumb.jpg)

*Artist: Vassafor
*Album: Malediction
*Year: 2017
*Genre: Black Metal
*Country: New Zealand (IMG:http://metalarea.org/forum/style_images/flags/New%20Zealand.png)
*Format: mp3@CBR320kbps
*Size: 123MB

Tracklist:
01. Devourer of a Thousand Worlds 16:26
02. Emergence (Of an Unconquerable One) 05:07
03. Elegy of the Accurser 03:12
04. Black Winds Victoryant 14:17
05. Illumination of the Sinister 10:45
******************************
Total playing time: 49:47





Technical info
(IMG:http://metalarea.org/images/spectrogram/2017_Oct/bd6760206f20471d5121f86869de7ee2.png)
Input File: 02 Emergence (Of an Unconquerable One).mp3
Channels : 2
Sample Rate : 44100
Precision : 16-bit
Duration : 00:05:04.99 = 13449839 samples = 22873.9 CDDA sectors
File Size : 12.2M
Bit Rate : 320k
Sample Encoding: MPEG audio (layer I, II or III)
Comments :
Title=Emergence (Of an Unconquerable One)
Artist=Vassafor
Album=Malediction
Tracknumber=2
Year=2017



Register


Go to the top of the page
  Insert nick Quick quote
+Quote Post
 
Start new topic
Replies (1 - 8)
post Oct 12 2017, 16:31:06
Post #2

Аннигилятор пивА
Group Icon
Group: V.I.P
Posts: 48,936
Releases: 14990
From: Koenigsberg - TILZIT
On Forums: 12 years 3 months
Thanks: 328036 time(s)
Russian Federation


123/320
Register


Go to the top of the page
  Insert nick Quick quote
+Quote Post
post Oct 13 2017, 13:14:07
Post #3

Crush! Kill! Destroy!
**************
Group: Металариец
Posts: 4,553
Releases: 15
From: Kaliningrad
On Forums: 10 years 10 months
Thanks: 4250 time(s)
Russian Federation


Наипревеликолепнейше!

Уж не знаю, чего и добавить.

Elegy of ... просто (IMG:style_emoticons/default/pray.gif) (IMG:style_emoticons/default/pray.gif) (IMG:style_emoticons/default/pray.gif)


Thanks:
(1) DarkHorde,
Go to the top of the page
  Insert nick Quick quote
+Quote Post
post Oct 15 2017, 06:06:28
Post #4

Crush! Kill! Destroy!
**************
Group: Металариец
Posts: 4,553
Releases: 15
From: Kaliningrad
On Forums: 10 years 10 months
Thanks: 4250 time(s)
Russian Federation


И тишина. Один из лучших альбомов года, как обычно, пройдет мимо, по ходу. Все ушли обсуждать Е и техно-мело-кор.

Кстати для инфы - ЦД и ЛП версии будут иметь разные коврики и трек-листы, отличие в третьем треке:

03 - Elegy of the Accurser (CD release)
03 - Servitude (LP + Cassette Release)


Thanks:
Go to the top of the page
  Insert nick Quick quote
+Quote Post
post Oct 16 2017, 20:27:33
Post #5

кручу наждак
**************
Group: Металариец
Posts: 3,394
Releases: 89
From: Самара
On Forums: 8 years 4 months
Thanks: 2537 time(s)
Russian Federation


По крайней мере не затеряется среди однообразных блэк-релизов.
Go to the top of the page
  Insert nick Quick quote
+Quote Post
post Oct 17 2017, 08:04:27
Post #6

Crush! Kill! Destroy!
**************
Group: Металариец
Posts: 4,553
Releases: 15
From: Kaliningrad
On Forums: 10 years 10 months
Thanks: 4250 time(s)
Russian Federation


QUOTE(judaz @ Oct 16 2017, 21:27:33) *
По крайней мере не затеряется среди однообразных блэк-релизов.


Вот не факт, не факт. К сожалению.
Go to the top of the page
  Insert nick Quick quote
+Quote Post
post Oct 17 2017, 08:11:28
Post #7

кручу наждак
**************
Group: Металариец
Posts: 3,394
Releases: 89
From: Самара
On Forums: 8 years 4 months
Thanks: 2537 time(s)
Russian Federation


ЦИТАТА(Dmitry1977 @ Oct 17 2017, 08:04:27) *
Вот не факт, не факт. К сожалению.

Не, я только себя имел в виду. Этот альбом как минимум останется в памяти, а не вылетит в другое ухо.
Go to the top of the page
  Insert nick Quick quote
+Quote Post
post Jun 15 2018, 19:59:14
Post #8

Правь статус, ####!111
**************
Group: Металариец
Posts: 2,576
Releases: 0
From: Одесса
On Forums: 10 years 6 months
Thanks: 990 time(s)
Ukraine


very insteresting
Go to the top of the page
  Insert nick Quick quote
+Quote Post
post Jun 25 2018, 18:18:26
Post #9

Black is beautiful
***********
Group: Металариец
Posts: 1,617
Releases: 3
On Forums: 6 years 6 months
Thanks: 282 time(s)
Unknown


Very occult, ritual. Good!
(IMG:style_emoticons/default/true_black.gif) (IMG:style_emoticons/default/true_black.gif)
Go to the top of the page
  Insert nick Quick quote
+Quote Post

Reply to this topicStart new topic
1 User(s) are reading this topic (1 Guests and 0 Anonymous Users)
0 Members:

 



- Lo-Fi Version Support form
Copyrights and abuse reports form
Time is now: 25th September 2018 - 18:39:58