Welcome Guest ( Log In | Register )

> Signatura Rerum - The Legend 1 (2017), Symphonic Black Metal
post Oct 12 2017, 14:34:13
Post #1

Serial Uploader
Group Icon
Group: V.I.P
Posts: 31,385
Releases: 29721
From: Lithuania
On Forums: 9 years 8 months
Thanks: 341393 time(s)
Lithuania


(IMG:http://metalarea.org/images/audiocovers/2017_Oct/acov_tid296067_thumb.jpg)

*Artist: Signatura Rerum
*Album: The Legend 1
*Year: 2017
*Genre: Symphonic Black Metal
*Country: Romania (IMG:http://metalarea.org/forum/style_images/flags/Romania.png)
*Format: mp3@CBR320kbps
*Size: 94MB

Tracklist:
01. Rise and Fall part 1
02. Rise and Fall part 2
03. Legion and Order part 1
04. Legion and Order part 2
05. Sand and Wine part 1
06. Sand and Wine part 2
******************************
Total playing time: 41:02




Technical info
(IMG:http://metalarea.org/images/spectrogram/2017_Oct/dc01866abcf4837e76ebf7a5f0966692.png)
Input File: 2 - Rise and Fall_ Pt. 2.mp3
Channels : 2
Sample Rate : 44100
Precision : 16-bit
Duration : 00:08:27.03 = 22359979 samples = 38027.2 CDDA sectors
File Size : 20.4M
Bit Rate : 322k
Sample Encoding: MPEG audio (layer I, II or III)
Comments :
Title=Rise and Fall, Pt. 2
Artist=Signatura Rerum
Album=The Legend 1
Tracknumber=2/6
Year=2017



Register


Вернуться к началу страницы
  Insert nick Quick quote
+Цитировать сообщение
 
Создать новую тему
Replies (1 - 1)
post Oct 12 2017, 16:41:10
Post #2

Правь статус, ####!111
**************
Group: Металариец
Posts: 12,183
Releases: 8798
From: Г.Харьков
On Forums: 5 years 9 months
Thanks: 140819 time(s)
Unknown


Register


Thanks:
Вернуться к началу страницы
  Insert nick Quick quote
+Цитировать сообщение

ОтветитьСоздать новую тему
2 User(s) are reading this topic (2 Guests and 0 Anonymous Users)
0 Members:

 



- Lo-Fi Version Support form
Copyrights and abuse reports form
Time is now: 18th February 2018 - 04:18:17