Welcome Guest ( Log In | Register )

> Mefisto - Mefisto (2017), Black/Death Metal (D7)
post Oct 12 2017, 14:37:21
Post #1

Аннигилятор пивА
Group Icon
Group: V.I.P
Posts: 46,866
Releases: 14082
From: Koenigsberg - TILZIT
On Forums: 12 years 3 weeks
Thanks: 312448 time(s)
Russian Federation


(IMG:https://metalarea.org/images/audiocovers/2017_Oct/acov_tid296068_thumb.jpg)

*Artist: Mefisto
*Album: Mefisto
*Year: 2017
*Genre: Black/Death Metal
*Country: Sweden (IMG:https://metalarea.org/forum/style_images/flags/Sweden.png)
*Format: mp3@CBR320kbps
*Size: 100MB

Tracklist:
01. Death Angel
02. I In The Sky
03. Morker, Kom Ta Min Hand
04. Let Go Of Life
05. Draconia
06. In Morte Victoria
07. Fatal Paradox
08. Mefisto (Anno 1892)
******************************
Total playing time: 43:22

Technical info
(IMG:https://metalarea.org/images/spectrogram/2017_Oct/90c131eac4127ff216c4081d29013fde.png)
Input File: 03 - Mörker_ Kom Ta Min Hand.mp3
Channels : 2
Sample Rate : 44100
Precision : 16-bit
Duration : 00:03:48.22 = 10064458 samples = 17116.4 CDDA sectors
File Size : 9.22M
Bit Rate : 323k
Sample Encoding: MPEG audio (layer I, II or III)
Comments :
Title=Mцrker, Kom Ta Min Hand
Artist=Mefisto
Album=Mefisto
Tracknumber=3/8
Year=2017



Register


Go to the top of the page
  Insert nick Quick quote
+Quote Post
 
Start new topic
Replies (1 - 2)
post Oct 12 2017, 16:33:14
Post #2

Аннигилятор пивА
Group Icon
Group: V.I.P
Posts: 46,866
Releases: 14082
From: Koenigsberg - TILZIT
On Forums: 12 years 3 weeks
Thanks: 312448 time(s)
Russian Federation


mirror
Register


Mefisto started back in 1984 and were one the first Swedish extreme bands to follow Bathory.



Morgan Myrhberg - Bass
Roberto "Thord" Granath - Drums (1984-1987, 2014-present)
Omar Ahmed - Guitars (1984-1987), Guitars, Vocals (2014-present)
Guest vocal by LG Petrov of Entombed A.D


Go to the top of the page
  Insert nick Quick quote
+Quote Post
post Nov 6 2017, 08:29:27
Post #3

Crush! Kill! Destroy!
**************
Group: Металариец
Posts: 4,449
Releases: 15
From: Kaliningrad
On Forums: 10 years 7 months
Thanks: 4143 time(s)
Russian Federation


Очень круто и мрачно у шведов получилось. Как-то даже и не ожидал от них такого смака.


Thanks:
Go to the top of the page
  Insert nick Quick quote
+Quote Post

Reply to this topicStart new topic
1 User(s) are reading this topic (1 Guests and 0 Anonymous Users)
0 Members:

 



- Lo-Fi Version Support form
Copyrights and abuse reports form
Time is now: 24th June 2018 - 11:41:43