Welcome Guest ( Log In | Register )

> Operus - Cenotaph (2017), Epic Symphonic Metal
post Oct 12 2017, 14:41:50
Post #1

Serial Uploader
Group Icon
Group: V.I.P
Posts: 32,736
Releases: 31034
From: Lithuania
On Forums: 10 years 2 weeks
Thanks: 355758 time(s)
Lithuania


(IMG:http://metalarea.org/images/audiocovers/2017_Oct/acov_tid296070_thumb.jpg)

*Artist: Operus
*Album: Cenotaph
*Year: 2017
*Genre: Epic Symphonic Metal
*Country: Canada (IMG:http://metalarea.org/forum/style_images/flags/Canada.png)
*Format: mp3@CBR320kbps
*Size: 101MB

Tracklist:
01. Silver Spell
02. Steel Against Steel
03. Colosseum
04. Sands of Time
05. Fate's Pantomime
06. Wretched Play
07. Cenotaph
08. Maya & The Wolf
09. La Catedral
10. The Return
******************************
Total playing time: 47:54




Technical info
(IMG:http://metalarea.org/images/spectrogram/2017_Oct/730439b592624bcbaa31089697e55e13.png)
Input File: 02. Steel Against Steel.mp3
Channels : 2
Sample Rate : 44100
Precision : 16-bit
Duration : 00:05:46.45 = 15278225 samples = 25983.4 CDDA sectors
File Size : 14.0M
Bit Rate : 323k
Sample Encoding: MPEG audio (layer I, II or III)
Comments :
Title=Steel Against Steel
Artist=Operus
Album=Cenotaph
Tracknumber=2/10
Year=2017
Genre=17
Discnumber=1/1



Register


Go to the top of the page
  Insert nick Quick quote
+Quote Post
 
Start new topic
Replies (1 - 2)
post Oct 12 2017, 21:06:51
Post #2

Ёлд ХеллоВяйне
Group Icon
Group: V.I.P
Posts: 25,585
Releases: 130
From: Питер
On Forums: 11 years 7 months
Thanks: 14079 time(s)
Russian Federation




Thanks:
Go to the top of the page
  Insert nick Quick quote
+Quote Post
post Oct 29 2017, 12:29:24
Post #3

Перевозчик
**************
Group: Металариец
Posts: 2,726
Releases: 0
On Forums: 9 years 11 months
Thanks: 549 time(s)
Russian Federation




В серединке повеселей, чем закрывашка будет. Но в среднем по палате, мне кажется, какое-то кафно.
Go to the top of the page
  Insert nick Quick quote
+Quote Post

Reply to this topicStart new topic
1 User(s) are reading this topic (1 Guests and 0 Anonymous Users)
0 Members:

 



- Lo-Fi Version Support form
Copyrights and abuse reports form
Time is now: 23rd June 2018 - 16:42:54