Welcome Guest ( Log In | Register )

> Osyron - Kingsbane (2017), Progressive Metal
post Oct 12 2017, 14:47:36
Post #1

Serial Uploader
Group Icon
Group: V.I.P
Posts: 33,073
Releases: 31358
From: Lithuania
On Forums: 10 years 3 months
Thanks: 358687 time(s)
Lithuania


(IMG:http://metalarea.org/images/audiocovers/2017_Oct/acov_tid296071_thumb.jpg)

*Artist: Osyron
*Album: Kingsbane
*Year: 2017
*Genre: Progressive Metal
*Country: Canada (IMG:http://metalarea.org/forum/style_images/flags/Canada.png)
*Format: mp3@CBR320kbps
*Size: 115MB

Tracklist:
01. From Ashes
02. To War
03. Razor's Wind
04. Viper Queen
05. Griefmaker
06. Kingsbane
07. Empire of Dust
08. Kingmaker
******************************
Total playing time: 54:46

(IMG:http://metalarea.org/images/myspace.png)


Technical info
(IMG:http://metalarea.org/images/spectrogram/2017_Oct/76bc200e819ae5e137d68f04229dc231.png)
Input File: 02. To War.mp3
Channels : 2
Sample Rate : 44100
Precision : 16-bit
Duration : 00:05:56.48 = 15720636 samples = 26735.8 CDDA sectors
File Size : 14.3M
Bit Rate : 321k
Sample Encoding: MPEG audio (layer I, II or III)
Comments :
Title=To War
Artist=Osyron
Album=Kingsbane
Tracknumber=2/8
Year=2017
Genre=9
Discnumber=1/1



Register


Go to the top of the page
  Insert nick Quick quote
+Quote Post
 
Start new topic
Replies (1 - 1)
post Oct 12 2017, 21:29:18
Post #2

Ёлд ХеллоВяйне
Group Icon
Group: V.I.P
Posts: 26,016
Releases: 130
From: Питер
On Forums: 11 years 10 months
Thanks: 14383 time(s)
Russian Federation




Thanks:
Go to the top of the page
  Insert nick Quick quote
+Quote Post

Reply to this topicStart new topic
1 User(s) are reading this topic (1 Guests and 0 Anonymous Users)
0 Members:

 



- Lo-Fi Version Support form
Copyrights and abuse reports form
Time is now: 25th September 2018 - 17:39:11