Welcome Guest ( Log In | Register )

> Redeye Revival - Double Drop [ep] (2017), Thrash Metal (D5)
post Oct 12 2017, 14:53:51
Post #1

Правь статус, ####!111
**************
Group: Металариец
Posts: 12,220
Releases: 8827
From: Г.Харьков
On Forums: 5 years 9 months
Thanks: 141377 time(s)
Unknown


(IMG:https://metalarea.org/images/audiocovers/2017_Oct/acov_tid296072_thumb.jpg)

*Artist: Redeye Revival
*Album: Double Drop [ep]
*Year: 2017
*Genre: Thrash Metal
*Country: United Kingdom (IMG:https://metalarea.org/forum/style_images/flags/United%20Kingdom.png)
*Format: mp3@CBR320kbps
*Size: 37MB

Tracklist:
1. Sly Dogs 04:10
2. Wasted in the Sun 03:26
3. Ruthless Rampage 01:42
4. Livershot 00:58
5. Human Pollution 02:53
6. Summer Solstice 04:07
******************************
Total playing time: 17:16




Technical info
(IMG:https://metalarea.org/images/spectrogram/2017_Oct/edd5b4ba83b5cff5af4c2d3ca2d6f75d.png)
Input File: 2 Wasted in the Sun.mp3
Channels : 2
Sample Rate : 44100
Precision : 16-bit
Duration : 00:03:25.66 = 9069518 samples = 15424.4 CDDA sectors
File Size : 8.39M
Bit Rate : 326k
Sample Encoding: MPEG audio (layer I, II or III)
Comments :
Title=Wasted in the Sun
Artist=RedEye revival
Album=Double Drop
Tracknumber=2/6
Year=2017
Genre=9
Discnumber=1/1



Register


Вернуться к началу страницы
  Insert nick Quick quote
+Цитировать сообщение
 
Создать новую тему
Replies (1 - 1)
post Oct 13 2017, 02:51:15
Post #2

Правь статус, ####!111
**************
Group: Металариец
Posts: 5,060
Releases: 0
From: Primorye.ru
On Forums: 6 years 11 months
Thanks: 944 time(s)
Russian Federation


Будет полноформат, чи не?
Вернуться к началу страницы
  Insert nick Quick quote
+Цитировать сообщение

ОтветитьСоздать новую тему
1 User(s) are reading this topic (1 Guests and 0 Anonymous Users)
0 Members:

 



- Lo-Fi Version Support form
Copyrights and abuse reports form
Time is now: 24th February 2018 - 03:11:26