Welcome Guest ( Log In | Register )

> Methwitch - Piss (2017), Brutal Death Metal/Grindcore
post Oct 12 2017, 14:55:45
Post #1

Serial Uploader
Group Icon
Group: V.I.P
Posts: 32,736
Releases: 31034
From: Lithuania
On Forums: 10 years 2 weeks
Thanks: 355758 time(s)
Lithuania


(IMG:http://metalarea.org/images/audiocovers/2017_Oct/acov_tid296073_thumb.jpg)

*Artist: Methwitch
*Album: Piss
*Year: 2017
*Genre: Brutal Death Metal/Grindcore
*Country: United States (IMG:http://metalarea.org/forum/style_images/flags/United%20States.png)
*Format: mp3@CBR320kbps
*Size: 140MB

Tracklist:
01. Our Father
02. Crematorium
03. Priest Of Piss
04. Krokodil Tears
05. Gallery Of Apostasy
06. Razorblade Sodomy
07. Obsidian
08. Voiddweller
09. Carmine
10. Bathtub Burial
11. Christwhore
12. Guillotine II
13. Gasp
14. Altar Of Blasphemy
15. Obsidian II
******************************
Total playing time: 1:00:48



Technical info
(IMG:http://metalarea.org/images/spectrogram/2017_Oct/e2150ab945e5ea7cfd05be824eacb5a6.png)
Input File: 02. Crematorium.mp3
Channels : 2
Sample Rate : 44100
Precision : 16-bit
Duration : 00:02:43.80 = 7223756 samples = 12285.3 CDDA sectors
File Size : 6.67M
Bit Rate : 326k
Sample Encoding: MPEG audio (layer I, II or III)
Comments :
Title=Crematorium
Artist=Methwitch
Album=Piss
Tracknumber=2/15
Year=2017



Register


Go to the top of the page
  Insert nick Quick quote
+Quote Post
 
Start new topic
Replies (1 - 1)
post Oct 12 2017, 17:20:10
Post #2

Правь статус, ####!111
**************
Group: Металариец
Posts: 13,384
Releases: 9428
From: Г.Харьков
On Forums: 6 years 1 month
Thanks: 153965 time(s)
Unknown


Register


Thanks:
(1) jollo,
Go to the top of the page
  Insert nick Quick quote
+Quote Post

Reply to this topicStart new topic
1 User(s) are reading this topic (1 Guests and 0 Anonymous Users)
0 Members:

 



- Lo-Fi Version Support form
Copyrights and abuse reports form
Time is now: 23rd June 2018 - 16:44:17