Welcome Guest ( Log In | Register )

 
Reply to this topicStart new topic
> Amoricide - Horror In The Flesh [ep] (2010), Thrash Metal (D)
post Oct 12 2017, 14:59:41
Post #1

Правь статус, ####!616
**************
Group: Металариец
Posts: 4,404
Releases: 3004
From: 55°35’N 38°08’E
On Forums: 10 years 2 months
Thanks: 56509 time(s)
Unknown


(IMG:http://metalarea.org/images/audiocovers/2017_Oct/acov_tid296074_thumb.jpg)

*Artist: Amoricide
*Album: Horror In The Flesh [ep]
*Year: 2010
*Genre: Thrash Metal
*Country: United States (IMG:http://metalarea.org/forum/style_images/flags/United%20States.png)
*Format: mp3@CBR320kbps
*Size: 55MB

Tracklist:
1. Woman Killer 05:42
2. Spiral of Death 03:06
3. Soul Ripper 03:47
4. Bleed from the Mouth (Reprise) 03:14
5. Linguistic Rapists (Bonus Track) 05:44
******************************
Total playing time: 21:33



Extended info
CD, Metal Rising Records

CD-Rip + scans


Technical info
(IMG:http://metalarea.org/images/spectrogram/2017_Oct/560cf766999c79bc5b9244c1f255db7e.png)
Input File: 01 Woman Killer.mp3
Channels : 2
Sample Rate : 44100
Precision : 16-bit
Duration : 00:05:44.97 = 15213177 samples = 25872.8 CDDA sectors
File Size : 13.8M
Bit Rate : 320k
Sample Encoding: MPEG audio (layer I, II or III)
Comments :
Title=Woman Killer
Artist=Amoricide
Album=Horror In The Flesh
Tracknumber=1
Year=2010
Genre=Thrash Metal



Register


Go to the top of the page
  Insert nick Quick quote
+Quote Post

Reply to this topicStart new topic
1 User(s) are reading this topic (1 Guests and 0 Anonymous Users)
0 Members:

 



- Lo-Fi Version Support form
Copyrights and abuse reports form
Time is now: 25th September 2018 - 19:03:32