Welcome Guest ( Log In | Register )

 
ОтветитьСоздать новую тему
> Highborne - Visions Of Retribution (2017), Atmospheric Black Metal (D6)
post Oct 12 2017, 15:02:58
Post #1

Serial Uploader
Group Icon
Group: V.I.P
Posts: 31,468
Releases: 29800
From: Lithuania
On Forums: 9 years 8 months
Thanks: 342142 time(s)
Lithuania


(IMG:http://metalarea.org/images/audiocovers/2017_Oct/acov_tid296075_thumb.jpg)

*Artist: Highborne
*Album: Visions Of Retribution
*Year: 2017
*Genre: Atmospheric Black Metal
*Country: United States (IMG:http://metalarea.org/forum/style_images/flags/United%20States.png)
*Format: mp3@CBR320kbps
*Size: 108MB

Tracklist:
01. Visions Of Retribution
02. Astral Affinity
03. No Dawn Ahead
04. The Bottomless Pit
05. Planes Of Melancholy
06. Cold Embrace
07. Insensible Gloom
08. Forbidden
09. Abysmal Soul
10. Highborne
******************************
Total playing time: 45:46




Technical info
(IMG:http://metalarea.org/images/spectrogram/2017_Oct/8892a63070b77067f8779080ae2e0c80.png)
Input File: 02. Astral Affinity.mp3
Channels : 2
Sample Rate : 44100
Precision : 16-bit
Duration : 00:03:03.83 = 8106683 samples = 13786.9 CDDA sectors
File Size : 7.60M
Bit Rate : 331k
Sample Encoding: MPEG audio (layer I, II or III)
Comments :
Title=Astral Affinity
Artist=Highborne
Album=Visions of Retribution
Tracknumber=2/10
Year=2017



Register


Вернуться к началу страницы
  Insert nick Quick quote
+Цитировать сообщение

ОтветитьСоздать новую тему
1 User(s) are reading this topic (1 Guests and 0 Anonymous Users)
0 Members:

 



- Lo-Fi Version Support form
Copyrights and abuse reports form
Time is now: 24th February 2018 - 02:38:46