Welcome Guest ( Log In | Register )

> Belus - Apophenia (2017), Progressive Black Metal
post Oct 12 2017, 15:07:15
Post #1

Аннигилятор пивА
Group Icon
Group: V.I.P
Posts: 48,936
Releases: 14990
From: Koenigsberg - TILZIT
On Forums: 12 years 3 months
Thanks: 328041 time(s)
Russian Federation


(IMG:https://metalarea.org/images/audiocovers/2017_Oct/acov_tid296076_thumb.jpg)

*Artist: Belus
*Album: Apophenia
*Year: 2017
*Genre: Progressive Black Metal
*Country: United States (IMG:https://metalarea.org/forum/style_images/flags/United%20States.png)
*Format: mp3@CBR320kbps
*Size: 94MB

Tracklist:
01. Chasm
02. Monolith
03. Avarice
04. Illusions
05. Psychosis
06. Omens
07. Equilibrium
******************************
Total playing time: 44:45




Extended info
Lesley Wolf - Bass (Mortals, Slaywhore)
Jacques Johnson - Drums
Matt Mewton - Guitars, Vocals (Woe, ex-Concussion)


Technical info
(IMG:https://metalarea.org/images/spectrogram/2017_Oct/89db41cf735a4d90d94ab50333cd4315.png)
Input File: 1 Chasm.mp3
Channels : 2
Sample Rate : 44100
Precision : 16-bit
Duration : 00:04:50.90 = 12828822 samples = 21817.7 CDDA sectors
File Size : 11.7M
Bit Rate : 322k
Sample Encoding: MPEG audio (layer I, II or III)
Comments :
Title=Chasm
Artist=Belus
Album=Apophenia
Tracknumber=1/7
Year=2017
Genre=9
Discnumber=1/1



Register


Go to the top of the page
  Insert nick Quick quote
+Quote Post
 
Start new topic
Replies (1 - 2)
post Oct 12 2017, 16:35:09
Post #2

Аннигилятор пивА
Group Icon
Group: V.I.P
Posts: 48,936
Releases: 14990
From: Koenigsberg - TILZIT
On Forums: 12 years 3 months
Thanks: 328041 time(s)
Russian Federation


mirror
Register


Thanks:
Go to the top of the page
  Insert nick Quick quote
+Quote Post
post Mar 27 2018, 15:30:08
Post #3

brutalcesar
**************
Group: Металариец
Posts: 17,579
Releases: 67
From: Рязань
On Forums: 9 years 8 months
Thanks: 8817 time(s)
Russian Federation


Register


Thanks:
Go to the top of the page
  Insert nick Quick quote
+Quote Post

Reply to this topicStart new topic
1 User(s) are reading this topic (1 Guests and 0 Anonymous Users)
0 Members:

 



- Lo-Fi Version Support form
Copyrights and abuse reports form
Time is now: 25th September 2018 - 19:17:07