Welcome Guest ( Log In | Register )

 
ОтветитьСоздать новую тему
> Redeye Revival - Raise Hell, No Regrets [ep] (2016), Thrash Metal
post Oct 12 2017, 15:07:24
Post #1

Правь статус, ####!111
**************
Group: Металариец
Posts: 12,220
Releases: 8827
From: Г.Харьков
On Forums: 5 years 9 months
Thanks: 141377 time(s)
Unknown


(IMG:https://metalarea.org/images/audiocovers/2017_Oct/acov_tid296077_thumb.jpg)

*Artist: Redeye Revival
*Album: Raise Hell, No Regrets [ep]
*Year: 2016
*Genre: Thrash Metal
*Country: United Kingdom (IMG:https://metalarea.org/forum/style_images/flags/United%20Kingdom.png)
*Format: mp3@CBR320kbps
*Size: 43MB

Tracklist:
1. Pre-Drinks 00:56
2. Breaking Point 03:25
3. Elation 04:14
4. Party Food 03:01
5. Lawyers vs. Journalists 05:31
******************************
Total playing time: 17:07




Technical info
(IMG:https://metalarea.org/images/spectrogram/2017_Oct/56847308cce02c0247756c1831d7c254.png)
Input File: Redeye Revival - Raise Hell, No Regrets - 03 Elation.mp3
Channels : 2
Sample Rate : 44100
Precision : 16-bit
Duration : 00:04:14.35 = 11216879 samples = 19076.3 CDDA sectors
File Size : 10.5M
Bit Rate : 329k
Sample Encoding: MPEG audio (layer I, II or III)
Comments :
Title=Elation
Artist=Redeye Revival
Album=Raise Hell, No Regrets
Tracknumber=3
Year=2016



Register


Вернуться к началу страницы
  Insert nick Quick quote
+Цитировать сообщение

ОтветитьСоздать новую тему
1 User(s) are reading this topic (1 Guests and 0 Anonymous Users)
0 Members:

 



- Lo-Fi Version Support form
Copyrights and abuse reports form
Time is now: 24th February 2018 - 03:13:56