Welcome Guest ( Log In | Register )

> Leviaethan - Smile! (1990), Thrash Metal
post Oct 12 2017, 15:15:14
Post #1

Правь статус, ####!616
**************
Group: Металариец
Posts: 4,398
Releases: 3004
From: 55°35’N 38°08’E
On Forums: 9 years 11 months
Thanks: 55894 time(s)
Unknown


(IMG:http://metalarea.org/images/audiocovers/2017_Oct/acov_tid296078_thumb.jpg)

*Artist: Leviaethan
*Album: Smile!
*Year: 1990
*Genre: Thrash Metal
*Country: Brazil (IMG:http://metalarea.org/forum/style_images/flags/Brazil.png)
*Format: mp3@CBR320kbps
*Size: 141MB

Tracklist:
1. The Last Supper 05:13
2. Live Free Or Die 04:51
3. A.I.D.S. 05:07
4. Bred To Die 05:08
5. Echoes From The Past 06:27
6. Pilgrimage To Insanity 05:40
7. Pimponetta 00:54
8. Spanish Blood 07:27
9. Elegy To Tyrants 06:17
10. Sacred Sin 03:51
11. Salvation 05:54
******************************
Total playing time: 56:49

Extended info
CD, Fonomídia (2012)

1-8 "Smile!"
9-11 Bonus tracks

CD-Rip + scans


Technical info
(IMG:http://metalarea.org/images/spectrogram/2017_Oct/7a12b4f7ca159802aea6df179b839846.png)
Input File: 01 The Last Supper.mp3
Channels : 2
Sample Rate : 44100
Precision : 16-bit
Duration : 00:05:16.13 = 13941245 samples = 23709.6 CDDA sectors
File Size : 12.6M
Bit Rate : 320k
Sample Encoding: MPEG audio (layer I, II or III)
Comments :
Title=The Last Supper
Artist=Leviaethan
Album=Smile
Tracknumber=1
Year=1990
Genre=Thrash Metal



Register


Go to the top of the page
  Insert nick Quick quote
+Quote Post
 
Start new topic
Replies (1 - 1)
post Oct 13 2017, 09:59:19
Post #2

hearer & reader
**************
Group: Металариец
Posts: 6,406
Releases: 81
From: Moscow
On Forums: 10 years 9 months
Thanks: 6418 time(s)
Russian Federation


Go to the top of the page
  Insert nick Quick quote
+Quote Post

Reply to this topicStart new topic
1 User(s) are reading this topic (1 Guests and 0 Anonymous Users)
0 Members:

 



- Lo-Fi Version Support form
Copyrights and abuse reports form
Time is now: 23rd June 2018 - 16:43:21