Welcome Guest ( Log In | Register )

 
ОтветитьСоздать новую тему
> Manfrea - Ignorance Is Strength [ep] (2017), Black/Death Metal
post Oct 12 2017, 15:17:11
Post #1

Serial Uploader
Group Icon
Group: V.I.P
Posts: 31,385
Releases: 29721
From: Lithuania
On Forums: 9 years 8 months
Thanks: 341393 time(s)
Lithuania


(IMG:http://metalarea.org/images/audiocovers/2017_Oct/acov_tid296079_thumb.jpg)

*Artist: Manfrea
*Album: Ignorance Is Strength [ep]
*Year: 2017
*Genre: Black/Death Metal
*Country: Russian Federation (IMG:http://metalarea.org/forum/style_images/flags/Russian%20Federation.png)
*Format: mp3@CBR320kbps
*Size: 35MB

Tracklist:
01. The New World 06:58
02. The Quit 04:42
03. Thoughtcrime 04:32
******************************
Total playing time: 16:12


Preview 2


Technical info
(IMG:http://metalarea.org/images/spectrogram/2017_Oct/1e8d532e5e3b626a747144732f34358b.png)
Input File: 02. The Quit.mp3
Channels : 2
Sample Rate : 44100
Precision : 16-bit
Duration : 00:04:42.07 = 12439375 samples = 21155.4 CDDA sectors
File Size : 11.5M
Bit Rate : 325k
Sample Encoding: MPEG audio (layer I, II or III)
Comments :
Title=The Quit
Artist=Manfrea
Album=Ignorance Is Strength (EP)
Tracknumber=02
Year=2017



Register


Вернуться к началу страницы
  Insert nick Quick quote
+Цитировать сообщение

ОтветитьСоздать новую тему
2 User(s) are reading this topic (2 Guests and 0 Anonymous Users)
0 Members:

 



- Lo-Fi Version Support form
Copyrights and abuse reports form
Time is now: 18th February 2018 - 04:17:16