Welcome Guest ( Log In | Register )

 
ОтветитьСоздать новую тему
> Despyre - Irritation [ep] (2017), Heavy/Thrash/Groove Metal
post Oct 12 2017, 15:33:40
Post #1

Serial Uploader
Group Icon
Group: V.I.P
Posts: 31,385
Releases: 29721
From: Lithuania
On Forums: 9 years 8 months
Thanks: 341393 time(s)
Lithuania


(IMG:http://metalarea.org/images/audiocovers/2017_Oct/acov_tid296080_thumb.jpg)

*Artist: Despyre
*Album: Irritation [ep]
*Year: 2017
*Genre: Heavy/Thrash/Groove Metal
*Country: United States (IMG:http://metalarea.org/forum/style_images/flags/United%20States.png)
*Format: mp3@CBR320kbps
*Size: 45MB

Tracklist:
01. Blue Sky 04:28
02. Lies 03:37
03. Irritation 03:42
04. Voodoo Fix 04:38
05. Black 05:05
******************************
Total playing time: 21:30



Technical info
(IMG:http://metalarea.org/images/spectrogram/2017_Oct/9b14b2cc5bec7edba7177ad5fbf94f74.png)
Input File: 02-despyre-lies-b5210d3e.mp3
Channels : 2
Sample Rate : 44100
Precision : 16-bit
Duration : 00:03:37.60 = 9596028 samples = 16319.8 CDDA sectors
File Size : 8.70M
Bit Rate : 320k
Sample Encoding: MPEG audio (layer I, II or III)
Comments :
Title=Lies
Artist=Despyre
Album=Irritation
Tracknumber=2/5
Year=2017
Genre=9



Register


Вернуться к началу страницы
  Insert nick Quick quote
+Цитировать сообщение

ОтветитьСоздать новую тему
2 User(s) are reading this topic (2 Guests and 0 Anonymous Users)
0 Members:

 



- Lo-Fi Version Support form
Copyrights and abuse reports form
Time is now: 18th February 2018 - 04:20:27