Welcome Guest ( Log In | Register )

> Town Tundra - Misanthropy Never Fails (2017), Modern Melodic Death Metal
post Oct 12 2017, 16:10:46
Post #1

Правь статус, ####!111
**************
Group: Металариец
Posts: 13,384
Releases: 9428
From: Г.Харьков
On Forums: 6 years 1 month
Thanks: 153965 time(s)
Unknown


(IMG:https://metalarea.org/images/audiocovers/2017_Oct/acov_tid296081_thumb.jpg)

*Artist: Town Tundra
*Album: Misanthropy Never Fails
*Year: 2017
*Genre: Modern Melodic Death Metal
*Country: Russian Federation (IMG:https://metalarea.org/forum/style_images/flags/Russian%20Federation.png)
*Format: mp3@CBR320kbps
*Size: 94MB

Tracklist:
01. Anti-Psalm .21
02. Senseless and Merciless
03. Wit From Woe
04. Jack of Spades (Fuck & Chic)
05. Misanthropy Never Fails
06. Ill Itch (Sick Of Revolutions)
07. Wolves Of Shame
08. The Last Rome
09. Hell Bleeds with Oil
10. Humiliating and Insulting
******************************
Total playing time: 43:57



Extended info
Warren Crow - Vocals
J.G.K. - Guitars
William - Drums
Anthony Crimson - Bass
Alexis Fiersen - Guitars




Technical info
(IMG:https://metalarea.org/images/spectrogram/2017_Oct/71af4bdf1ee3d861c468eee2c99f0367.png)
Input File: 3 Wit From Woe.mp3
Channels : 2
Sample Rate : 44100
Precision : 16-bit
Duration : 00:04:53.05 = 12923329 samples = 21978.5 CDDA sectors
File Size : 12.0M
Bit Rate : 327k
Sample Encoding: MPEG audio (layer I, II or III)
Comments :
Title=Wit From Woe
Artist=Town Tundra
Album=Misanthropy Never Fails
Tracknumber=3/10
Year=2017
Genre=9
Discnumber=1/1



Register


Go to the top of the page
  Insert nick Quick quote
+Quote Post
 
Start new topic
Replies (1 - 2)
post Oct 14 2017, 22:33:22
Post #2

Group: Подсевший
Posts: 22
Releases: 0
From: nurman
On Forums: 8 years 7 months
Thanks: 1 time(s)
Russian Federation


Альбом великолепный! чувствуется что мужики выложили все силы и душу! Успехов в дальнейшем
Go to the top of the page
  Insert nick Quick quote
+Quote Post
post Oct 20 2017, 08:08:42
Post #3

Ъ
**************
Group: Металариец
Posts: 9,066
Releases: 9
On Forums: 9 years 5 months
Thanks: 1718 time(s)
Sweden


Третьесорт, на раз прогнать норм.
Go to the top of the page
  Insert nick Quick quote
+Quote Post

Reply to this topicStart new topic
1 User(s) are reading this topic (1 Guests and 0 Anonymous Users)
0 Members:

 



- Lo-Fi Version Support form
Copyrights and abuse reports form
Time is now: 23rd June 2018 - 16:59:44