Welcome Guest ( Log In | Register )

> Blackened - Underground Attack [ep] (2014), Thrash Metal
post Oct 12 2017, 16:19:35
Post #1

Angel Eviscerator
**************
Group: Металариец
Posts: 4,004
Releases: 2681
From: 55°35’N 38°08’E
On Forums: 9 years 7 months
Thanks: 51299 time(s)
Russian Federation


(IMG:http://metalarea.org/images/audiocovers/2017_Oct/acov_tid296082_thumb.jpg)

*Artist: Blackened
*Album: Underground Attack [ep]
*Year: 2014
*Genre: Thrash Metal
*Country: Brazil (IMG:http://metalarea.org/forum/style_images/flags/Brazil.png)
*Format: mp3@CBR320kbps
*Size: 53MB

Tracklist:
1. Starting the Chaos 02:01
2. Underground Attack 03:17
3. Extreme Violence 04:03
4. Psychopath 03:16
5. Third World 03:51
6. TxNxDx (Thrash Never Dies) 03:04
******************************
Total playing time: 19:32



Extended info
СD, Witches Brew 2015

CD-Rip + scans


Technical info
(IMG:http://metalarea.org/images/spectrogram/2017_Oct/20bd549408371af7eeb0b028fb7f2858.png)
Input File: 01 Starting the Chaos.mp3
Channels : 2
Sample Rate : 44100
Precision : 16-bit
Duration : 00:02:03.51 = 5446923 samples = 9263.47 CDDA sectors
File Size : 4.94M
Bit Rate : 320k
Sample Encoding: MPEG audio (layer I, II or III)
Comments :
Title=Starting the Chaos
Artist=Blackened
Album=Underground Attack
Tracknumber=1
Year=2015
Genre=Thrash Metal



Register


Вернуться к началу страницы
  Insert nick Quick quote
+Цитировать сообщение
 
Создать новую тему
Replies (1 - 1)
post Oct 13 2017, 03:25:16
Post #2

Правь статус, ####!111
**************
Group: Металариец
Posts: 5,060
Releases: 0
From: Primorye.ru
On Forums: 6 years 10 months
Thanks: 944 time(s)
Russian Federation


@blackenedbrazil (IMG:style_emoticons/default/metaler.gif)
Вернуться к началу страницы
  Insert nick Quick quote
+Цитировать сообщение

ОтветитьСоздать новую тему
2 User(s) are reading this topic (2 Guests and 0 Anonymous Users)
0 Members:

 



- Lo-Fi Version Support form
Copyrights and abuse reports form
Time is now: 18th February 2018 - 04:19:53