Welcome Guest ( Log In | Register )

 
ОтветитьСоздать новую тему
> Fourth Crusade - Sowers Of Perdition [ep] (2016), Melodic Metalcore
post Oct 12 2017, 16:48:10
Post #1

Маньяк
**********
Group: Металариец
Posts: 1,143
Releases: 113
On Forums: 8 years 6 months
Thanks: 724 time(s)
Kazakhstan


(IMG:https://metalarea.org/images/audiocovers/2017_Oct/acov_tid296083_thumb.jpg)

*Artist: Fourth Crusade
*Album: Sowers Of Perdition [ep]
*Year: 2016
*Genre: Melodic Metalcore
*Country: Germany (IMG:https://metalarea.org/forum/style_images/flags/Germany.png)
*Format: mp3@CBR320kbps
*Size: 32MB

Tracklist:
1.Sowers Of Perdition 03:08
2.At War With The World 03:23
3.Martyr 03:19
4.The Sickness Unborn 03:42
******************************
Total playing time: 13:32



Extended info
Вегансопли


Technical info
(IMG:https://metalarea.org/images/spectrogram/2017_Oct/c8a637fa87b7e2480e9e30c7d69ddcaa.png)
Input File: Fourth Crusade - Sowers of Perdition - 02 At War With The World.mp3
Channels : 2
Sample Rate : 44100
Precision : 16-bit
Duration : 00:03:23.51 = 8974879 samples = 15263.4 CDDA sectors
File Size : 8.28M
Bit Rate : 325k
Sample Encoding: MPEG audio (layer I, II or III)
Comments :
Title=At War With The World
Artist=Fourth Crusade
Album=Sowers of Perdition
Tracknumber=2
Year=2016



Register


Thanks:
(2) Rosen, varlam4,
Вернуться к началу страницы
  Insert nick Quick quote
+Цитировать сообщение

ОтветитьСоздать новую тему
2 User(s) are reading this topic (2 Guests and 0 Anonymous Users)
0 Members:

 



- Lo-Fi Version Support form
Copyrights and abuse reports form
Time is now: 18th February 2018 - 04:21:41