Welcome Guest ( Log In | Register )

> Daeva - Pulsing Dark Absorptions [ep] (2017), Blackened Thrash Metal
post Oct 12 2017, 17:57:45
Post #1

Правь статус, ####!111
**************
Group: Металариец
Posts: 13,384
Releases: 9428
From: Г.Харьков
On Forums: 6 years 1 month
Thanks: 153965 time(s)
Unknown


(IMG:https://metalarea.org/images/audiocovers/2017_Oct/acov_tid296085_thumb.jpg)

*Artist: Daeva
*Album: Pulsing Dark Absorptions [ep]
*Year: 2017
*Genre: Blackened Thrash Metal
*Country: United States (IMG:https://metalarea.org/forum/style_images/flags/United%20States.png)
*Format: mp3@CBR320kbps
*Size: 44MB

Tracklist:
1. No Effective Banishings 05:40
2. Clenched Fist Of The Beast 02:56
3. Pulsing Dark Reabsorption 04:29
4. Descending The Miasmal Void 03:59
5. Deathcrush (Mayhem) 03:17
******************************
Total playing time: 20:21

Preview 1

Technical info
(IMG:https://metalarea.org/images/spectrogram/2017_Oct/fc02079d9ad2cc9c68a59219ce94f6a6.png)
Input File: 2 Clenched Fist Of The Beast.mp3
Channels : 2
Sample Rate : 44100
Precision : 16-bit
Duration : 00:02:56.58 = 7787222 samples = 13243.6 CDDA sectors
File Size : 7.29M
Bit Rate : 330k
Sample Encoding: MPEG audio (layer I, II or III)
Comments :
Title=Clenched Fist Of The Beast
Artist=Daeva
Album=Pulsing Dark Absorptions
Tracknumber=2/5
Year=2017
Genre=9
Discnumber=1/1



Register


Go to the top of the page
  Insert nick Quick quote
+Quote Post
 
Start new topic
Replies (1 - 1)
post Mar 19 2018, 21:43:26
Post #2

Правь статус, ####!111
**************
Group: Металариец
Posts: 2,086
Releases: 0
From: Odessa
On Forums: 10 years 3 months
Thanks: 776 time(s)
Ukraine


This is something you really should listen to, my friend (IMG:style_emoticons/default/9.gif)
Go to the top of the page
  Insert nick Quick quote
+Quote Post

Reply to this topicStart new topic
1 User(s) are reading this topic (1 Guests and 0 Anonymous Users)
0 Members:

 



- Lo-Fi Version Support form
Copyrights and abuse reports form
Time is now: 23rd June 2018 - 16:59:24