Welcome Guest ( Log In | Register )

> A Threat To The Enemy - A Threat To The Enemy (2017), Groove Death Metal
post Oct 12 2017, 18:50:00
Post #1

Аннигилятор пивА
Group Icon
Group: V.I.P
Posts: 45,695
Releases: 13643
From: Koenigsberg - TILZIT
On Forums: 11 years 8 months
Thanks: 301928 time(s)
Russian Federation


(IMG:https://metalarea.org/images/audiocovers/2017_Oct/acov_tid296086_thumb.jpg)

*Artist: A Threat To The Enemy
*Album: A Threat To The Enemy
*Year: 2017
*Genre: Groove Death Metal
*Country: United States (IMG:https://metalarea.org/forum/style_images/flags/United%20States.png)
*Format: mp3@CBR320kbps
*Size: 83MB

Tracklist:
01. The Paradox of Simple Minds
02. In Search of the Divine
03. Life in a Hourglass
04. Strength of Man
05. Dislocation
06. Scratching the Surface
07. Enemy's Hero
08. Twelve Wounds
09. Conform to the Role
10. With Sorrow
******************************
Total playing time: 38:34



Extended info
Brad Christopher - Vocals
Michael Hill - Drums
Les Paul - Bass
Paul Egly- Guitars


Technical info
(IMG:https://metalarea.org/images/spectrogram/2017_Oct/1ab44234a62ae27c68eaf2a7615374bc.png)
Input File: 4 Strength of Man.mp3
Channels : 2
Sample Rate : 44100
Precision : 16-bit
Duration : 00:03:06.72 = 8234220 samples = 14003.8 CDDA sectors
File Size : 7.55M
Bit Rate : 323k
Sample Encoding: MPEG audio (layer I, II or III)
Comments :
Title=Strength of Man
Artist=A Threat to the Enemy
Album=A Threat to the Enemy
Tracknumber=4/10
Year=2017
Genre=9
Discnumber=1/1



Register


Вернуться к началу страницы
  Insert nick Quick quote
+Цитировать сообщение
 
Создать новую тему
Replies (1 - 2)
post Oct 12 2017, 23:46:03
Post #2

Три Литра
***
Group: Завсегдатай
Posts: 294
Releases: 5
From: Рим
On Forums: 9 years 10 months
Thanks: 298 time(s)
Russian Federation


Зеркальни на карелас
Вернуться к началу страницы
  Insert nick Quick quote
+Цитировать сообщение
post Oct 13 2017, 04:03:10
Post #3

Аннигилятор пивА
Group Icon
Group: V.I.P
Posts: 45,695
Releases: 13643
From: Koenigsberg - TILZIT
On Forums: 11 years 8 months
Thanks: 301928 time(s)
Russian Federation


mirror
Register

Register


Thanks:
(1) Buregon,
Вернуться к началу страницы
  Insert nick Quick quote
+Цитировать сообщение

ОтветитьСоздать новую тему
2 User(s) are reading this topic (2 Guests and 0 Anonymous Users)
0 Members:

 



- Lo-Fi Version Support form
Copyrights and abuse reports form
Time is now: 18th February 2018 - 04:17:42