Welcome Guest ( Log In | Register )

> Firebreather - Firebreather (2017), Doom Metal
post Oct 12 2017, 19:11:22
Post #1

Правь статус, ####!111
**************
Group: Металариец
Posts: 13,384
Releases: 9428
From: Г.Харьков
On Forums: 6 years 1 month
Thanks: 153965 time(s)
Unknown


(IMG:https://metalarea.org/images/audiocovers/2017_Oct/acov_tid296087_thumb.jpg)

*Artist: Firebreather
*Album: Firebreather
*Year: 2017
*Genre: Doom Metal
*Country: Sweden (IMG:https://metalarea.org/forum/style_images/flags/Sweden.png)
*Format: mp3@CBR320kbps
*Size: 69MB

Tracklist:
1. Fire Foretold 07:09
2. Emerald Eyes 07:42
3. The Ice Lord 06:13
4. Release The Lava 11:34
******************************
Total playing time: 32:38




Technical info
(IMG:https://metalarea.org/images/spectrogram/2017_Oct/8849571da23b3f517976c398ba5579b8.png)
Input File: 2 Emerald Eyes.mp3
Channels : 2
Sample Rate : 44100
Precision : 16-bit
Duration : 00:07:42.10 = 20378610 samples = 34657.5 CDDA sectors
File Size : 18.6M
Bit Rate : 321k
Sample Encoding: MPEG audio (layer I, II or III)
Comments :
Title=Emerald Eyes
Artist=Firebreather
Album=S/T
Tracknumber=2/4
Year=2017
Genre=9
Discnumber=1/1



Register


Go to the top of the page
  Insert nick Quick quote
+Quote Post
 
Start new topic
Replies (1 - 1)
post Oct 12 2017, 20:26:03
Post #2

ЖылезякО
Group Icon
Group: Admin team
Posts: 9,211
Releases: 3724
From: ЖЕЛЕЗНОдорожный
On Forums: 12 years 3 months
Thanks: 35547 time(s)
Russian Federation




Go to the top of the page
  Insert nick Quick quote
+Quote Post

Reply to this topicStart new topic
1 User(s) are reading this topic (1 Guests and 0 Anonymous Users)
0 Members:

 



- Lo-Fi Version Support form
Copyrights and abuse reports form
Time is now: 23rd June 2018 - 16:47:36