Welcome Guest ( Log In | Register )

 
ОтветитьСоздать новую тему
> Lichtzehrer - ...Of Witchcraft And Folklore [demo] (2017), Raw Black Metal
post Oct 12 2017, 19:41:18
Post #1

Маньяк
**********
Group: Металариец
Posts: 1,153
Releases: 886
From: Prešov
On Forums: 3 years 10 months
Thanks: 20333 time(s)
Slovakia


(IMG:http://metalarea.org/images/audiocovers/2017_Oct/acov_tid296089_thumb.jpg)

*Artist: Lichtzehrer
*Album: ...Of Witchcraft And Folklore [demo]
*Year: 2017
*Genre: Raw Black Metal
*Country: Germany (IMG:http://metalarea.org/forum/style_images/flags/Germany.png)
*Format: mp3@CBR320kbps
*Size: 32MB

Tracklist:
1. Of Bones and Funeral Pyres 03:24
2. Mystery of the Leather Bridge 06:29
******************************
Total playing time: 9:53



Extended info
Harvest of Death
Tape limited to 66 copies


Technical info
(IMG:http://metalarea.org/images/spectrogram/2017_Oct/1966dea0983dda88c5ab6c954c1a2554.png)
Input File: A1. Of Bones and Funeral Pyres.mp3
Channels : 2
Sample Rate : 48000
Precision : 16-bit
Duration : 00:03:24.07 = 9795600 samples ~ 15305.6 CDDA sectors
File Size : 8.54M
Bit Rate : 335k
Sample Encoding: MPEG audio (layer I, II or III)
Comments :
Title=Of Bones And Funeral Pyres
Artist=Lichtzehrer
Album=...of Witchcraft and Folklore
Tracknumber=01/02
Year=2017
Genre=Raw Black Metal



Register


Вернуться к началу страницы
  Insert nick Quick quote
+Цитировать сообщение

ОтветитьСоздать новую тему
2 User(s) are reading this topic (2 Guests and 0 Anonymous Users)
0 Members:

 



- Lo-Fi Version Support form
Copyrights and abuse reports form
Time is now: 18th February 2018 - 04:16:19